img image001 image001 image001 image001 image001 image001 image001 image001 image001 image001 image001 image001 image001 image001 image001

Planets Sun Sun Sun
Статистика раздачи
Автор: Nickolas3434 | Размер: 1.45 ГБ | Добавлен: 03 мар 2015
Раздают: 163    Качают: 5
Скачать торрент
Скачать торрент
Описание торрента

СообщениеДобавлено: 03 мар 2015 

Информация о фильме
Название: Тысяча и одна ночь
Оригинальное название: A Thousand and One Nights
Год выхода: 1974
Жанр: мультфильм, фэнтези, приключения, семейный
Режиссер: Карел Земан / Karel Zeman
В ролях: Ян Триска / Jan Triska
О фильме:
Традиционный сюжет знаменитой восточной сказки про Синдбада-Морехода представлен в безупречном графическом исполнении, живо и образно. Лучшая альтернатива американской анимационной традиции — добрый, спокойный фильм, воспитывающий у юных зрителей чувство вкуса и стиля.


Страна: Чехословакия
Продолжительность: 01:28:20
Перевод: Дублированный
Файл
Кодек: XviD
Качество: DVDRip
Видео: 688x520 (1.32:1), 25 fps, XviD build 50 ~1954 kbps avg, 0.22 bit/pixel
Звук: 48 kHz, AC3 Dolby Digital, 2/0 (L,R) ch, ~384.00 kbps avg
Субтитры: отсутствуют



General
Complete name : C:UsersX666Desktop1000_AND_ONE_NIGHT1000_And_One_Night_DVDRip.avi
Format : AVI
Format/Info : Audio Video Interleave
File size : 1.45 GiB
Duration : 1h 28mn
Overall bit rate : 2 349 Kbps
Movie name : Pohadky tisice a jedne noci [ripped by domin8]
Genre : Child's
Writing application : VirtualDubMod 1.5.10.3 | www.virtualdub-fr.org || (build 2550/release)
Original source form/Name : Cartoon
Comment :
Video #0
ID : 0
Format : MPEG-4 Visual
Format profile : Advanced Simple@L5
Format settings, BVOP : Yes
Format settings, QPel : No
Format settings, GMC : No warppoints
Format settings, Matrix : Default (H.263)
Codec ID : XVID
Codec ID/Hint : XviD
Duration : 1h 28mn
Bit rate : 1 955 Kbps
Width : 688 pixels
Height : 520 pixels
Display aspect ratio : 4:3
Frame rate : 25.000 fps
Color space : YUV
Chroma subsampling : 4:2:0
Bit depth : 8 bits
Scan type : Progressive
Bits/(Pixel*Frame) : 0.219
Stream size : 1.21 GiB (83%)
Writing library : XviD 1.2.1 (UTC 2008-12-04)
Audio #1
ID : 1
Format : AC-3
Format/Info : Audio Coding 3
Mode extension : CM (complete main)
Codec ID : 2000
Duration : 1h 28mn
Bit rate mode : Constant
Bit rate : 384 Kbps
Channel(s) : 2 channels
Channel positions : Front: L R
Sampling rate : 48.0 KHz
Bit depth : 16 bits
Stream size : 243 MiB (16%)
Alignment : Split accross interleaves
Interleave, duration : 40 ms (1.00 video frame)
Interleave, preload duration : 500 ms
Title : rus



Автор рипа: domin8



   Похожие торренты   Торрент   Размер 
В этой теме нет новых непрочитанных сообщений. Однажды ночью в одном городе / Jedné noci v jednom městě (2007) DVDRip

53 | 7

696.51 МБ

В этой теме нет новых непрочитанных сообщений. Тысяча и одна ночь / Le meraviglie di Aladino (1961) DVDRip от SergV

3 | 6

1.46 ГБ

В этой теме нет новых непрочитанных сообщений. Тысяча и одна ночь удовольствий / Finalmente... le mille e una notte (1972) DVDRip | Sub

413 | 10

936.64 МБ

В этой теме нет новых непрочитанных сообщений. Тысяча и одна ночь Ёситаки Амано / 1001 Nights (1998) DVDRip - ExKinoRay

13 | 6

500.83 МБ

В этой теме нет новых непрочитанных сообщений. Тысяча и одна ночь. Cобрание сказок [08 томов из 08] (2007) PDF

114 | 21

298.79 МБ

В этой теме нет новых непрочитанных сообщений. Тысяча и одна ночь / Les Milles Et Une Nuits / Les 1001 nuits (1990) DVDRip | P2, Sub

471 | 16

735.31 МБ

В этой теме нет новых непрочитанных сообщений. Тысяча и одна ночь / BinBir Gece [01-80] (2007-2008) TVRip | L1

125 | 105

34.47 ГБ




Вы не можете начинать темы
Вы не можете отвечать на сообщения
Вы не можете редактировать свои сообщения
Вы не можете удалять свои сообщения
Вы не можете добавлять вложения

Перейти:  
Для Мосгорсуда, Роскомнадзора и рекламодателей: mosgorsud-torrent[собачка]yandex.ru
 Вход
ppkBB3cker v.2 © 2008-2014 @ PPK
[ Time : 1.577s | 17 Queries | GZIP : On ]

Торрент трекер RUTOR.IN, Не можете зайти на rutor.org? Какой новый адрес рутор? Какое зеркало рутор? Не работает rutor.org и зеркала? Тогда наш торрент специально для вас. Rutor.in неофициальное зеркало rutor. В случае если у Вас заблокирован rutor или вдруг Вы не можете на него зайти, то Вы без труда сможете скачать бесплатно и без рекламы последние новинки кино, игр, сериалов и прочего у нас, на Rutor.in. Не нужно использовать прокси, чтобы зайти на рутор, достаточно воспользоваться нашим ресурсом. Все новые фильмы, игры, сериалы, книги и музыка за 2013 и 2014 годы через торрент бесплатно. Скачивайте фильмы в хорошем качестве, игры для пк, xbox, playstation без регистрации. У нас вы найдете новые Зарубежные сериалы и Русские сериалы 2013, 2014, 2015 годов. Оставайтесь с нами, качайте любимые фильмы, игры, сериалы, книги и музыку.