img image001 image001 image001 image001 image001 image001 image001 image001 image001 image001 image001 image001 image001 image001 image001

Planets Sun Sun Sun
Статистика раздачи
Автор: Nickolas3434 | Размер: 5.37 ГБ | Добавлен: 03 мар 2015
Раздают: 848    Качают: 36
Скачать торрент
Скачать торрент
Описание торрента

СообщениеДобавлено: 03 мар 2015 




7-ой гном
Der 7bte Zwerg
The 7th Dwarf



#77
Год выпуска: 2014
Страна: Германия (Universal Pictures, Drei-Freunde, Cinevista Film)
Жанр: Мультфильм, Приключения, Семейный
Продолжительность: 1:27:52

Перевод: Профессиональный дублированный (лицензия)

Режиссер: Борис Альинович / Boris Aljinovic



Роли озвучивали: Джошуа Грэхэм, Мэтт Гилберт, Эл Пэрриш, Джофф Мэй, Джо Март, Камерон Элвин, Дэниэл Велбат, Дов Грэй, Кевин Моррис, Криста Клэхейн, Джеймс Франтовски

Роли дублировали: , Настя Каменских, Сергей Чихачев, Михаил Тихонов



Описание: В замке Фантабулараса большой переполох: принцесса Роза празднует свой 18-й день рождения. Приняты самые строгие меры безопасности, ведь злобная Колдунья Делламорта, которая прокляла Розу на ее крестинах, не позволит проклятию раствориться в воздухе.
Семеро гномов — Умник, Рыжик, Ворчун, Соня, Силач, Бодряк и Бобо — ничего не знают об этом, когда отправляются на праздник в замок, мечтая повеселиться… Бобо, самый маленький гном, случайно запускает тайный механизм в кольце Колдуньи, и принцесса вместе со всеми гостями замерзает. Гномы спасаются в самую последнюю секунду. Теперь, чтобы все исправить, им придется отправиться в опасное путешествие и найти возлюбленного принцессы, похищенного драконом злобной Делламорты.




Премьера: 21 августа 2014 (28 августа 2014)
Релиз на DVD (Россия): 9 октября 2014





За исходный BD 3D спасибо



Качество: BDRip (by Ash61)
Контейнер: MKV
Формат 3D: Half OverUnder / Вертикальная анаморфная стереопара
Порядок ракурсов: левый ракурс первый



Видео: AVC / 23,976 fps / 1920х1080p / ~7.5 Mbps

Аудио:
#1 - Русский / AC3 / 48 KHz / 5.1 ch / 448 Kbps (Дубляж - R5)
#2 - Немецкий / AC3 / 48 KHz / 5.1 ch / 640 Kbps (Original - BD 3D)

Субтитры: Отсутствуют

General
Unique ID : 187836478825194386839060847955514933352 (0x8D4FFD6B835C1AE58E0A411F15C2C068)
Complete name : E:The7thDwarf(2014)3D-halfOU(Ash61).mkv
Format : Matroska
Format version : Version 2
File size : 5.37 GiB
Duration : 1h 27mn
Overall bit rate : 8 747 Kbps
Movie name : 7-ой гном / Der 7bte Zwerg / The 7th Dwarf (2014) 3D
Encoded date : UTC 2015-03-01 17:23:46
Writing application : mkvmerge v5.8.0 ('No Sleep / Pillow') built on Sep 2 2012 15:37:04
Writing library : libebml v1.2.3 + libmatroska v1.3.0

Video
ID : 1
Format : AVC
Format/Info : Advanced Video Codec
Format profile : High@L4.1
Format settings, CABAC : Yes
Format settings, ReFrames : 4 frames
Codec ID : V_MPEG4/ISO/AVC
Duration : 1h 27mn
Bit rate : 7 485 Kbps
Width : 1 920 pixels
Height : 1 080 pixels
Display aspect ratio : 16:9
Frame rate mode : Constant
Frame rate : 23.976 fps
Color space : YUV
Chroma subsampling : 4:2:0
Bit depth : 8 bits
Scan type : Progressive
Bits/(Pixel*Frame) : 0.151
Stream size : 4.59 GiB (86%)
Title : BDRip by Ash61
Writing library : x264 core 138 r2358 9e941d1
Encoding settings : cabac=1 / ref=4 / deblock=1:-3:-3 / analyse=0x3:0x113 / me=umh / subme=10 / psy=1 / psy_rd=1.00:0.00 / mixed_ref=1 / me_range=32 / chroma_me=1 / trellis=2 / 8x8dct=1 / cqm=0 / deadzone=21,11 / fast_pskip=1 / chroma_qp_offset=-2 / threads=12 / lookahead_threads=2 / sliced_threads=0 / nr=0 / decimate=1 / interlaced=0 / bluray_compat=0 / constrained_intra=0 / bframes=9 / b_pyramid=2 / b_adapt=2 / b_bias=0 / direct=3 / weightb=1 / open_gop=0 / weightp=2 / keyint=250 / keyint_min=23 / scenecut=40 / intra_refresh=0 / rc_lookahead=60 / rc=crf / mbtree=1 / crf=16.5 / qcomp=0.70 / qpmin=0 / qpmax=69 / qpstep=4 / vbv_maxrate=40000 / vbv_bufsize=30000 / crf_max=0.0 / nal_hrd=none / frame-packing=4 / ip_ratio=1.40 / aq=1:0.70
Language : German
Default : Yes
Forced : No

Audio #1
ID : 2
Format : AC-3
Format/Info : Audio Coding 3
Mode extension : CM (complete main)
Format settings, Endianness : Big
Codec ID : A_AC3
Duration : 1h 27mn
Bit rate mode : Constant
Bit rate : 448 Kbps
Channel(s) : 6 channels
Channel positions : Front: L C R, Side: L R, LFE
Sampling rate : 48.0 KHz
Bit depth : 16 bits
Compression mode : Lossy
Stream size : 282 MiB (5%)
Title : Дубляж - R5
Language : Russian
Default : Yes
Forced : No

Audio #2
ID : 3
Format : AC-3
Format/Info : Audio Coding 3
Mode extension : CM (complete main)
Format settings, Endianness : Big
Codec ID : A_AC3
Duration : 1h 27mn
Bit rate mode : Constant
Bit rate : 640 Kbps
Channel(s) : 6 channels
Channel positions : Front: L C R, Side: L R, LFE
Sampling rate : 48.0 KHz
Bit depth : 16 bits
Compression mode : Lossy
Stream size : 402 MiB (7%)
Title : Original - BD 3D
Language : German
Default : No
Forced : No

Menu
00:00:00.000 : :1
00:08:16.121 : :2
00:15:27.677 : :3
00:20:24.014 : :4
00:27:08.460 : :5
00:34:14.302 : :6
00:41:22.021 : :7
00:48:48.926 : :8
00:56:41.898 : :9
01:03:59.919 : :10
01:12:40.314 : :11
01:21:23.962 : :12





















   Похожие торренты   Торрент   Размер 
В этой теме нет новых непрочитанных сообщений. 7-ой гном / Der 7bte Zwerg (2014) WEB-DL 1080p | Лицензия

928 | 67

5.29 ГБ

В этой теме нет новых непрочитанных сообщений. 7-ой гном / Der 7bte Zwerg (2014) BDRemux 1080p от ExKinoRay | D | Лицензия

22 | 7

18.05 ГБ

В этой теме нет новых непрочитанных сообщений. 7-ой гном / Der 7bte Zwerg (2014) BDRip 720 от SuperMin

104 | 6

2.06 ГБ

В этой теме нет новых непрочитанных сообщений. 7-ой гном / Der 7bte Zwerg (2014) BDRip от Twi7ter | D | Лицензия

386 | 15

1.46 ГБ

В этой теме нет новых непрочитанных сообщений. 7-ой гном / Der 7bte Zwerg (2014) BDRip-AVC от HELLYWOOD | Лицензия

176 | 7

2.18 ГБ

В этой теме нет новых непрочитанных сообщений. 7-ой гном / Der 7bte Zwerg (2014) BDRip 720p | KinoGadget | iPad

206 | 17

1.31 ГБ

В этой теме нет новых непрочитанных сообщений. 7-ой гном / Der 7bte Zwerg (2014) DVDRip | Лицензия

7403 | 412

1.37 ГБ




Вы не можете начинать темы
Вы не можете отвечать на сообщения
Вы не можете редактировать свои сообщения
Вы не можете удалять свои сообщения
Вы не можете добавлять вложения

Перейти:  
Для Мосгорсуда, Роскомнадзора и рекламодателей: mosgorsud-torrent[собачка]yandex.ru
 Вход
ppkBB3cker v.2 © 2008-2014 @ PPK
[ Time : 0.031s | 16 Queries | GZIP : Off ]

cron