img image001 image001 image001 image001 image001 image001 image001 image001 image001 image001 image001 image001 image001 image001 image001

Planets Sun Sun Sun
Статистика раздачи
Автор: Nickolas3434 | Размер: 4.44 ГБ | Добавлен: 03 мар 2015
Раздают: 50    Качают: 19
Скачать торрент
Скачать торрент
Описание торрента

СообщениеДобавлено: 03 мар 2015 

Информация о фильме
Название: Любопытный Джордж
Оригинальное название: Curious George
Год выхода: 2006
Жанр: Мультфильм, комедия, приключения, семейный
Режиссер: Мэттью О’Каллаган
В ролях: Фрэнк Уэлкер, Уилл Феррелл, Шэйн Баумель, Тамара Джо Битти, Юджин Леви, Кристофер Чен, Джесси Флауер, Дик Ван Дайк, Александр Гоулд, Терренс Харди мл., Хейли Ноэль Джонсон, Келси Лэнсдаун, Эриель Винтер, Дрю Бэрримор, Дэвид Кросс, Билли Уэст, Джефф Беннетт, Майкл Чайнимуринди, Майкл Сорич, Эд О’Росс, Джоан Плаурайт, Кэт Сауси, Клинт Ховард, Сонни Дей, Уэнди Катлер, Джои Д’Аурия, Ричард Эпкар, Трева Этьен, Эдди Фрирсон, Дональд Фуллилов

О фильме:
Приключения Любопытного Джорджа, любознательной маленькой обезьянки с ненасытным голодом к приключениям. Природные мужественность и любовь к забавам приводит его к новым друзьям, но также и вовлекает в ряд не совсем хороших приключений…
Рейтинг G - Нет возрастных ограничений
«Вперед навстречу приключениям с самой забавной обезьянкой!»
Рип - Викс
Синхронизация переводов - Викс
Сохранены оригинальные чаптеры как на Blu-Ray
Общее
Уникальный идентификатор : 177072844298709988178756219147914721293 (0x8536FD43E589D27B8AB61C107DD6380D)
Полное имя : H:Curious.George.2006.x264.BDRip.1080p-MediaClub.mkv
Формат : Matroska
Версия формата : Version 2
Размер файла : 4,44 Гбайт
Продолжительность : 1 ч. 27 м.
Общий поток : 7280 Кбит/сек
Название фильма : Curious George (2006) BDRip 1080p =MediaClub= [Викс]
Дата кодирования : UTC 2015-03-02 12:21:27
Программа кодирования : mkvmerge v5.8.0 ('No Sleep / Pillow') built on Sep 2 2012 15:37:04
Библиотека кодирования : libebml v1.2.3 + libmatroska v1.3.0

Видео
Идентификатор : 1
Формат : AVC
Формат/Информация : Advanced Video Codec
Профиль формата : High@L4.1
Параметр CABAC формата : Да
Параметр ReFrames формата : 4 кадра
Идентификатор кодека : V_MPEG4/ISO/AVC
Продолжительность : 1 ч. 27 м.
Битрейт : 5000 Кбит/сек
Ширина : 1920 пикселей
Высота : 1040 пикселей
Соотношение сторон : 1,85:1
Режим частоты кадров : Постоянный
Частота кадров : 23,976 кадра/сек
Цветовое пространство : YUV
Субдискретизация насыщенности : 4:2:0
Битовая глубина : 8 бит
Тип развёртки : Прогрессивная
Бит/(Пиксели*Кадры) : 0.104
Размер потока : 2,96 Гбайт (67%)
Библиотека кодирования : x264 core 125 r2208 d9d2288
Настройки программы : cabac=1 / ref=4 / deblock=1:-3:-3 / analyse=0x3:0x133 / me=umh / subme=11 / psy=1 / psy_rd=1.00:0.25 / mixed_ref=1 / me_range=48 / chroma_me=1 / trellis=2 / 8x8dct=1 / cqm=0 / deadzone=21,11 / fast_pskip=0 / chroma_qp_offset=-4 / threads=12 / lookahead_threads=2 / sliced_threads=0 / nr=0 / decimate=1 / interlaced=0 / bluray_compat=0 / constrained_intra=0 / bframes=8 / b_pyramid=2 / b_adapt=2 / b_bias=0 / direct=3 / weightb=1 / open_gop=0 / weightp=2 / keyint=240 / keyint_min=24 / scenecut=40 / intra_refresh=0 / rc=2pass / mbtree=0 / bitrate=5000 / ratetol=1.0 / qcomp=0.60 / qpmin=0 / qpmax=69 / qpstep=4 / cplxblur=20.0 / qblur=0.5 / ip_ratio=1.40 / pb_ratio=1.30 / aq=1:1.00
Язык : English
Default : Да
Forced : Нет

Аудио #1
Идентификатор : 2
Формат : AC-3
Формат/Информация : Audio Coding 3
Расширение режима : CM (complete main)
Параметр Endianness формата : Big
Идентификатор кодека : A_AC3
Продолжительность : 1 ч. 27 м.
Вид битрейта : Постоянный
Битрейт : 384 Кбит/сек
Каналы : 6 каналов
Расположение каналов : Front: L C R, Side: L R, LFE
Частота : 48,0 КГц
Битовая глубина : 16 бит
Метод сжатия : С потерями
Размер потока : 240 Мбайт (5%)
Заголовок : Dub
Язык : Russian
Default : Да
Forced : Нет

Аудио #2
Идентификатор : 3
Формат : AC-3
Формат/Информация : Audio Coding 3
Расширение режима : CM (complete main)
Параметр Endianness формата : Big
Идентификатор кодека : A_AC3
Продолжительность : 1 ч. 27 м.
Вид битрейта : Постоянный
Битрейт : 384 Кбит/сек
Каналы : 6 каналов
Расположение каналов : Front: L C R, Side: L R, LFE
Частота : 48,0 КГц
Битовая глубина : 16 бит
Метод сжатия : С потерями
Размер потока : 240 Мбайт (5%)
Заголовок : PD
Язык : Russian
Default : Нет
Forced : Нет

Аудио #3
Идентификатор : 4
Формат : DTS
Формат/Информация : Digital Theater Systems
Режим : 16
Параметр Endianness формата : Big
Идентификатор кодека : A_DTS
Продолжительность : 1 ч. 27 м.
Вид битрейта : Постоянный
Битрейт : 1509 Кбит/сек
Каналы : 6 каналов
Расположение каналов : Front: L C R, Side: L R, LFE
Частота : 48,0 КГц
Битовая глубина : 24 бит
Метод сжатия : С потерями
Размер потока : 942 Мбайт (21%)
Язык : English
Default : Нет
Forced : Нет

Меню
00:00:00.000 : :Chapter 01
00:04:02.700 : :Chapter 02
00:06:23.924 : :Chapter 03
00:11:38.321 : :Chapter 04
00:15:14.872 : :Chapter 05
00:18:27.231 : :Chapter 06
00:21:21.320 : :Chapter 07
00:25:11.635 : :Chapter 08
00:30:11.392 : :Chapter 09
00:35:00.765 : :Chapter 10
00:40:41.397 : :Chapter 11
00:46:10.391 : :Chapter 12
00:51:26.875 : :Chapter 13
00:56:25.672 : :Chapter 14
00:59:00.828 : :Chapter 15
01:04:51.637 : :Chapter 16
01:08:38.322 : :Chapter 17
01:12:33.682 : :Chapter 18
01:14:21.622 : :Chapter 19
01:18:00.216 : :Chapter 20
01:27:18.816 : :Chapter 21


Страна: США
Студия: Imagine Entertainment, Universal Animation Studios, Universal Pictures
Продолжительность: 01:27:19
Перевод: Дублированный, профессиональный двухголосый (издание SUPERBIT)

Файл
Кодек: x264
Качество: BDRip 1080p
Видео: MPEG-4 AVC, 5000 Кбит/с, 1920x1040, 23.976 кадр/с
Звук:
Аудио #1: Русский (AC3, 6 ch, 384 Кбит/с) / Дублированный
Аудио #2: Русский (AC3, 6 ch, 384 Кбит/с) / Профессиональный двухголосый (издание SUPERBIT)
Аудио #3: Английский (DTS, 6 ch, 1509 Кбит/с)

Семпл







Релиз от: Рип, работа с аудио - Викс



   Похожие торренты   Торрент   Размер 
В этой теме нет новых непрочитанных сообщений. Любопытный Джордж / Curious George (2006) BDRemux 1080p от MediaClub | D, P2

0 | 11

24.86 ГБ

В этой теме нет новых непрочитанных сообщений. Любопытный Джордж / Curious George (2006) BDRip-AVC от MediaClub | D, P2

48 | 5

1.63 ГБ

В этой теме нет новых непрочитанных сообщений. Любопытный Джордж / Curious George (2006) BDRip от MediaClub | D

69 | 6

1.37 ГБ

В этой теме нет новых непрочитанных сообщений. Любопытный Джордж / Curious George (2006) BDRip 720p от MediaClub | D, P2

75 | 14

2.92 ГБ

В этой теме нет новых непрочитанных сообщений. Любопытный Джордж / Curious George (2006) WEB-DLRip от Deadmauvlad | D | Лицензия

130 | 12

1.47 ГБ

В этой теме нет новых непрочитанных сообщений. Любопытный Джордж 3 / Curious George 3: Back to the Jungle (2015) BDRip 720p | Чистый звук

137 | 40

3.38 ГБ

В этой теме нет новых непрочитанных сообщений. Любопытный Джордж 2 / Curious George 2: Follow That Monkey! (2009) DVDRip

573 | 28

1.08 ГБ




Вы не можете начинать темы
Вы не можете отвечать на сообщения
Вы не можете редактировать свои сообщения
Вы не можете удалять свои сообщения
Вы не можете добавлять вложения

Перейти:  
Для Мосгорсуда, Роскомнадзора и рекламодателей: mosgorsud-torrent[собачка]yandex.ru
 Вход
ppkBB3cker v.2 © 2008-2014 @ PPK
[ Time : 0.060s | 15 Queries | GZIP : Off ]

Торрент трекер RUTOR.IN, Не можете зайти на rutor.org? Какой новый адрес рутор? Какое зеркало рутор? Не работает rutor.org и зеркала? Тогда наш торрент специально для вас. Rutor.in неофициальное зеркало rutor. В случае если у Вас заблокирован rutor или вдруг Вы не можете на него зайти, то Вы без труда сможете скачать бесплатно и без рекламы последние новинки кино, игр, сериалов и прочего у нас, на Rutor.in. Не нужно использовать прокси, чтобы зайти на рутор, достаточно воспользоваться нашим ресурсом. Все новые фильмы, игры, сериалы, книги и музыка за 2013 и 2014 годы через торрент бесплатно. Скачивайте фильмы в хорошем качестве, игры для пк, xbox, playstation без регистрации. У нас вы найдете новые Зарубежные сериалы и Русские сериалы 2013, 2014, 2015 годов. Оставайтесь с нами, качайте любимые фильмы, игры, сериалы, книги и музыку.