img image001 image001 image001 image001 image001 image001 image001 image001 image001 image001 image001 image001 image001 image001 image001

Planets Sun Sun Sun
Статистика раздачи
Автор: Nickolas3434 | Размер: 3.15 ГБ | Добавлен: 03 мар 2015
Раздают: 54    Качают: 7
Скачать торрент
Скачать торрент
Описание торрента

СообщениеДобавлено: 03 мар 2015 

Информация о фильме

Название: Пингвины Мадагаскара
Оригинальное название: Penguins of Madagascar
Год выпуска: 2014
Жанр: Мультфильм, комедия, приключения, семейный, полнометражный
Выпущено: США, DreamWorks Animation, Pacific Data Images (PDI)
Режиссер: Эрик Дарнелл, Саймон Дж. Смит
В ролях: Том МакГрат, Крис Миллер, Кристофер Найтс, Бенедикт Камбербэтч, Петер Стормаре, Джон Малкович, Кен Жонг, Аннет Махендру
О фильме: Сверхсекретные операции, железная дисциплина и выдержка, а главное, феноменальная находчивость — вот критерии успешной миссии, даже если она кажется невыполнимой.

Файл

Качество: BDRip (AVC)
Видео: MPEG-4 AVC, 2222 Кбит/с, 1024x554, 23.976 кадр/с
Аудио: Русский, латышский, литовский, эстонский, украинский, английский (AC3, 6 ch, 448 Кбит/с)
Размер: 3.15 ГБ
Продолжительность: 01:31:50
Перевод: Дублированный
Субтитры: Русские, латышские, литовские, эстонские, украинские, английские
Озвучивание: Дублированное (Лицензия)
Сохранены оригинальные чаптеры.
x264 [info]: frame I:1325 Avg QP:15.11 size: 83114
x264 [info]: frame P:37311 Avg QP:18.99 size: 21414
x264 [info]: frame B:93460 Avg QP:21.63 size: 6648
x264 [info]: consecutive B-frames: 5.5% 4.8% 17.0% 38.7% 15.4% 14.5% 2.1% 1.0% 0.5% 0.7%
x264 [info]: mb I I16..4: 9.7% 61.7% 28.6%
x264 [info]: mb P I16..4: 2.3% 12.1% 2.5% P16..4: 29.5% 30.5% 9.1% 3.2% 0.3% skip:10.5%
x264 [info]: mb B I16..4: 0.4% 1.4% 0.3% B16..8: 30.6% 17.1% 3.1% direct: 3.6% skip:43.6% L0:42.3% L1:45.5% BI:12.3%
x264 [info]: 8x8 transform intra:69.6% inter:52.6%
x264 [info]: direct mvs spatial:93.9% temporal:6.1%
x264 [info]: coded y,uvDC,uvAC intra: 75.8% 82.4% 61.8% inter: 14.6% 18.8% 10.8%
x264 [info]: i16 v,h,dc,p: 18% 18% 6% 58%
x264 [info]: i8 v,h,dc,ddl,ddr,vr,hd,vl,hu: 10% 12% 8% 8% 11% 11% 13% 11% 15%
x264 [info]: i4 v,h,dc,ddl,ddr,vr,hd,vl,hu: 12% 15% 7% 8% 13% 11% 13% 9% 12%
x264 [info]: i8c dc,h,v,p: 34% 28% 17% 20%
x264 [info]: Weighted P-Frames: Y:7.8% UV:6.0%
x264 [info]: ref P L0: 51.5% 7.7% 16.7% 7.4% 4.8% 3.9% 3.4% 2.0% 1.9% 0.6% 0.1%
x264 [info]: ref B L0: 70.9% 11.7% 6.7% 4.4% 2.5% 1.9% 1.4% 0.5%
x264 [info]: ref B L1: 91.4% 8.6%
x264 [info]: kb/s:2222.23


Общее
Уникальный идентификатор : 227753777494225532961953582723407295017 (0xAB57C8314E3B71E087B14801B8883229)
Полное имя : D:ЗагрузкиPenguins.Of.Madagascar.2014.x264.BDRip.(AVC).ExKinoRay.mkv
Формат : Matroska
Версия формата : Version 2
Размер файла : 3,15 Гбайт
Продолжительность : 1 ч. 31 м.
Общий поток : 4914 Кбит/сек
Название фильма : Пингвины Мадагаскара.2014.Rip by: ollan
Дата кодирования : UTC 2015-03-02 14:16:20
Программа кодирования : mkvmerge v5.6.0 ('Kenya Kane') built on May 27 2012 16:44:04
Библиотека кодирования : libebml v1.2.3 + libmatroska v1.3.0

Видео
Идентификатор : 1
Формат : AVC
Формат/Информация : Advanced Video Codec
Профиль формата : High@L4.1
Параметр CABAC формата : Да
Параметр ReFrames формата : 9 кадров
Идентификатор кодека : V_MPEG4/ISO/AVC
Продолжительность : 1 ч. 31 м.
Битрейт : 2222 Кбит/сек
Ширина : 1024 пикселя
Высота : 554 пикселя
Соотношение сторон : 1,85:1
Режим частоты кадров : Постоянный
Частота кадров : 23,976 кадра/сек
Цветовое пространство : YUV
Субдискретизация насыщенности : 4:2:0
Битовая глубина : 8 бит
Тип развёртки : Прогрессивная
Бит/(Пиксели*Кадры) : 0.163
Размер потока : 1,36 Гбайт (43%)
Библиотека кодирования : x264 core 125 r2200 999b753
Настройки программы : cabac=1 / ref=9 / deblock=1:-3:-3 / analyse=0x3:0x133 / me=umh / subme=11 / psy=1 / psy_rd=1.00:0.10 / mixed_ref=1 / me_range=32 / chroma_me=1 / trellis=2 / 8x8dct=1 / cqm=0 / deadzone=21,11 / fast_pskip=0 / chroma_qp_offset=-3 / threads=12 / lookahead_threads=2 / sliced_threads=0 / nr=0 / decimate=0 / interlaced=0 / bluray_compat=0 / constrained_intra=0 / bframes=9 / b_pyramid=2 / b_adapt=2 / b_bias=0 / direct=3 / weightb=1 / open_gop=0 / weightp=2 / keyint=240 / keyint_min=23 / scenecut=40 / intra_refresh=0 / rc=2pass / mbtree=0 / bitrate=2222 / ratetol=1.0 / qcomp=0.60 / qpmin=0 / qpmax=69 / qpstep=4 / cplxblur=20.0 / qblur=0.5 / ip_ratio=1.40 / pb_ratio=1.30 / aq=1:1.00
Язык : English
Default : Да
Forced : Нет

Аудио #1
Идентификатор : 2
Формат : AC-3
Формат/Информация : Audio Coding 3
Расширение режима : CM (complete main)
Параметр Endianness формата : Big
Идентификатор кодека : A_AC3
Продолжительность : 1 ч. 31 м.
Вид битрейта : Постоянный
Битрейт : 448 Кбит/сек
Каналы : 6 каналов
Расположение каналов : Front: L C R, Side: L R, LFE
Частота : 48,0 КГц
Битовая глубина : 16 бит
Метод сжатия : С потерями
Размер потока : 294 Мбайт (9%)
Заголовок : Дублированный (лицензия)
Язык : Russian
Default : Да
Forced : Нет

Аудио #2
Идентификатор : 3
Формат : AC-3
Формат/Информация : Audio Coding 3
Расширение режима : CM (complete main)
Параметр Endianness формата : Big
Идентификатор кодека : A_AC3
Продолжительность : 1 ч. 31 м.
Вид битрейта : Постоянный
Битрейт : 448 Кбит/сек
Каналы : 6 каналов
Расположение каналов : Front: L C R, Side: L R, LFE
Частота : 48,0 КГц
Битовая глубина : 16 бит
Метод сжатия : С потерями
Размер потока : 294 Мбайт (9%)
Заголовок : Дублированный (лицензия)
Язык : Latvian
Default : Нет
Forced : Нет

Аудио #3
Идентификатор : 4
Формат : AC-3
Формат/Информация : Audio Coding 3
Расширение режима : CM (complete main)
Параметр Endianness формата : Big
Идентификатор кодека : A_AC3
Продолжительность : 1 ч. 31 м.
Вид битрейта : Постоянный
Битрейт : 448 Кбит/сек
Каналы : 6 каналов
Расположение каналов : Front: L C R, Side: L R, LFE
Частота : 48,0 КГц
Битовая глубина : 16 бит
Метод сжатия : С потерями
Размер потока : 294 Мбайт (9%)
Заголовок : Дублированный (лицензия)
Язык : Lithuanian
Default : Нет
Forced : Нет

Аудио #4
Идентификатор : 5
Формат : AC-3
Формат/Информация : Audio Coding 3
Расширение режима : CM (complete main)
Параметр Endianness формата : Big
Идентификатор кодека : A_AC3
Продолжительность : 1 ч. 31 м.
Вид битрейта : Постоянный
Битрейт : 448 Кбит/сек
Каналы : 6 каналов
Расположение каналов : Front: L C R, Side: L R, LFE
Частота : 48,0 КГц
Битовая глубина : 16 бит
Метод сжатия : С потерями
Размер потока : 294 Мбайт (9%)
Заголовок : Дублированный (лицензия)
Язык : Estonian
Default : Нет
Forced : Нет

Аудио #5
Идентификатор : 6
Формат : AC-3
Формат/Информация : Audio Coding 3
Расширение режима : CM (complete main)
Параметр Endianness формата : Big
Идентификатор кодека : A_AC3
Продолжительность : 1 ч. 31 м.
Вид битрейта : Постоянный
Битрейт : 448 Кбит/сек
Каналы : 6 каналов
Расположение каналов : Front: L C R, Side: L R, LFE
Частота : 48,0 КГц
Битовая глубина : 16 бит
Метод сжатия : С потерями
Размер потока : 294 Мбайт (9%)
Заголовок : Дублированный (лицензия)
Язык : Ukrainian
Default : Нет
Forced : Нет

Аудио #6
Идентификатор : 7
Формат : AC-3
Формат/Информация : Audio Coding 3
Расширение режима : CM (complete main)
Параметр Endianness формата : Big
Идентификатор кодека : A_AC3
Продолжительность : 1 ч. 31 м.
Вид битрейта : Постоянный
Битрейт : 448 Кбит/сек
Каналы : 6 каналов
Расположение каналов : Front: L C R, Side: L R, LFE
Частота : 48,0 КГц
Битовая глубина : 16 бит
Метод сжатия : С потерями
Размер потока : 294 Мбайт (9%)
Язык : English
Default : Нет
Forced : Нет

Текст #1
Идентификатор : 8
Формат : UTF-8
Идентификатор кодека : S_TEXT/UTF8
Идентификатор кодека/Информация : UTF-8 Plain Text
Заголовок : Full
Язык : Russian
Default : Нет
Forced : Нет

Текст #2
Идентификатор : 9
Формат : UTF-8
Идентификатор кодека : S_TEXT/UTF8
Идентификатор кодека/Информация : UTF-8 Plain Text
Заголовок : Full
Язык : Latvian
Default : Нет
Forced : Нет

Текст #3
Идентификатор : 10
Формат : UTF-8
Идентификатор кодека : S_TEXT/UTF8
Идентификатор кодека/Информация : UTF-8 Plain Text
Заголовок : Full
Язык : Lithuanian
Default : Нет
Forced : Нет

Текст #4
Идентификатор : 11
Формат : UTF-8
Идентификатор кодека : S_TEXT/UTF8
Идентификатор кодека/Информация : UTF-8 Plain Text
Заголовок : Full
Язык : Estonian
Default : Нет
Forced : Нет

Текст #5
Идентификатор : 12
Формат : UTF-8
Идентификатор кодека : S_TEXT/UTF8
Идентификатор кодека/Информация : UTF-8 Plain Text
Заголовок : Full
Язык : Ukrainian
Default : Нет
Forced : Нет

Текст #6
Идентификатор : 13
Формат : UTF-8
Идентификатор кодека : S_TEXT/UTF8
Идентификатор кодека/Информация : UTF-8 Plain Text
Заголовок : Full
Язык : English
Default : Нет
Forced : Нет

Меню
00:00:00.000 : en:Chapter 01
00:03:38.718 : en:Chapter 02
00:07:27.738 : en:Chapter 03
00:09:24.272 : en:Chapter 04
00:12:10.521 : en:Chapter 05
00:16:09.301 : en:Chapter 06
00:19:22.452 : en:Chapter 07
00:23:05.509 : en:Chapter 08
00:26:58.658 : en:Chapter 09
00:29:01.322 : en:Chapter 10
00:30:36.417 : en:Chapter 11
00:34:01.205 : en:Chapter 12
00:38:05.992 : en:Chapter 13
00:41:31.197 : en:Chapter 14
00:44:25.162 : en:Chapter 15
00:46:39.880 : en:Chapter 16
00:49:12.950 : en:Chapter 17
00:54:31.559 : en:Chapter 18
00:56:01.066 : en:Chapter 19
01:00:04.017 : en:Chapter 20
01:03:07.241 : en:Chapter 21
01:06:41.997 : en:Chapter 22
01:09:52.271 : en:Chapter 23
01:12:10.409 : en:Chapter 24
01:14:19.913 : en:Chapter 25
01:15:59.012 : en:Chapter 26
01:18:28.161 : en:Chapter 27
01:20:49.636 : en:Chapter 28
01:31:49.253 : en:Chapter 29








Релиз от: Rip by:



   Похожие торренты   Торрент   Размер 
В этой теме нет новых непрочитанных сообщений. Пингвины Мадагаскара / Penguins of Madagascar (2014) BDRip 1080p от ExKinoRay | Лицензия

54 | 6

6.75 ГБ

В этой теме нет новых непрочитанных сообщений. Пингвины Мадагаскара 2D, 3D / Penguins of Madagascar 2D, 3D (2014) BDRemux 1080р от ExKinoRay | 3D-Video | D | Лицензия

34 | 4

33.3 ГБ

В этой теме нет новых непрочитанных сообщений. Пингвины Мадагаскара / Penguins of Madagascar (2014) BDRip | Лицензия

3634 | 147

1.36 ГБ

В этой теме нет новых непрочитанных сообщений. Пингвины Мадагаскара / Penguins of Madagascar (2014) BDRip от MediaClub | D | Лицензия

352 | 33

746.95 МБ

В этой теме нет новых непрочитанных сообщений. Пингвины Мадагаскара / Penguins of Madagascar (2014) BDRip 1080p | Лицензия

385 | 37

9.99 ГБ

В этой теме нет новых непрочитанных сообщений. Пингвины Мадагаскара / Penguins of Madagascar (2014) BDRip-AVC от HELLYWOOD | Лицензия

774 | 24

1.46 ГБ

В этой теме нет новых непрочитанных сообщений. Пингвины Мадагаскара / Penguins of Madagascar (2014) BDRip от Twi7ter | D | Лицензия

88 | 10

1.46 ГБ




Вы не можете начинать темы
Вы не можете отвечать на сообщения
Вы не можете редактировать свои сообщения
Вы не можете удалять свои сообщения
Вы не можете добавлять вложения

Перейти:  
Для Мосгорсуда, Роскомнадзора и рекламодателей: mosgorsud-torrent[собачка]yandex.ru
 Вход
ppkBB3cker v.2 © 2008-2014 @ PPK
[ Time : 0.052s | 15 Queries | GZIP : Off ]

Торрент трекер RUTOR.IN, Не можете зайти на rutor.org? Какой новый адрес рутор? Какое зеркало рутор? Не работает rutor.org и зеркала? Тогда наш торрент специально для вас. Rutor.in неофициальное зеркало rutor. В случае если у Вас заблокирован rutor или вдруг Вы не можете на него зайти, то Вы без труда сможете скачать бесплатно и без рекламы последние новинки кино, игр, сериалов и прочего у нас, на Rutor.in. Не нужно использовать прокси, чтобы зайти на рутор, достаточно воспользоваться нашим ресурсом. Все новые фильмы, игры, сериалы, книги и музыка за 2013 и 2014 годы через торрент бесплатно. Скачивайте фильмы в хорошем качестве, игры для пк, xbox, playstation без регистрации. У нас вы найдете новые Зарубежные сериалы и Русские сериалы 2013, 2014, 2015 годов. Оставайтесь с нами, качайте любимые фильмы, игры, сериалы, книги и музыку.