img image001 image001 image001 image001 image001 image001 image001 image001 image001 image001 image001 image001 image001 image001 image001

Planets Sun Sun Sun
Статистика раздачи
Автор: Nickolas3434 | Размер: 1.48 ГБ | Добавлен: 06 мар 2015
Раздают: 21    Качают: 8
Скачать торрент
Скачать торрент
Описание торрента

СообщениеДобавлено: 06 мар 2015 

Информация о фильме
Название: Солана, Людвиг и Гурин с лисьим хвостом
Оригинальное название: Solan Ludvig og Gurin med reverompa
Год выхода: 1998
Жанр: мультфильм, комедия, приключения, семейный
Режиссер: Джон М. Якобсен / John M. Jacobsen
В ролях: Торалв Морстад, Грете Нилсен, Пиа Боргли, Венке Фосс, Хэльге Рейсс, Фрэнк Роберт, Бьорн Йенсег, Anders Hatlo, Кари Анн Грёнсунд, Марит Андреассен
О фильме:
Не шути над другими, а то однажды можешь сам стать объектом насмехательств. Гном Гурин – любитель найти смешное в других, одним прекрасным утром просыпается с роскошным лисьим хвостом. Как известно, мех ценится у модниц. Одна из них – богатая женщина Стенгенфохн-Гнад стремится заполучить хвост, чтобы украсить свою одежду. Детектив Гундерсен должен помочь ей в этом. Однако у молодого человека свои взгляды на то, как быть с гномом и его лисьими мехами.


Страна: Норвегия
Продолжительность: 01:12:24
Перевод: Любительский (одноголосый, закадровый) Max Nabokov
Файл
Кодек: XviD
Качество: DVDRip
Видео: 720x400 (1.80:1), 25 fps, XviD build 73 ~2135 kbps avg, 0.30 bit/pixel
Звук: Аудио #1: Русский: 48 kHz, AC3 Dolby Digital, 3/2 (L,C,R,l,r) + LFE ch, ~384.00 kbps avg [Любительский (одноголосый, закадровый)]
Аудио #2: Норвежский: 48 kHz, AC3 Dolby Digital, 3/2 (L,C,R,l,r) + LFE ch, ~384.00 kbps avg [Оригинал]
Субтитры: отсутствуют



General
Complete name : C:UsersX666DesktopSolan Ludvig og Gurin med reverompaSolan_Ludvig_og_Gurin_med_reverompa_DVDRip.avi
Format : AVI
Format/Info : Audio Video Interleave
File size : 1.48 GiB
Duration : 1h 12mn
Overall bit rate : 2 919 Kbps
Movie name : Solan Ludvig og Gurin med reverompa [ripped by domin8]
Genre : Child's
Writing application : VirtualDubMod 1.5.10.3 | www.virtualdub-fr.org || (build 2550/release)
Original source form/Name : Cartoon
Video #0
ID : 0
Format : MPEG-4 Visual
Format profile : Advanced Simple@L5
Format settings, BVOP : Yes
Format settings, QPel : No
Format settings, GMC : No warppoints
Format settings, Matrix : Custom
Codec ID : XVID
Codec ID/Hint : XviD
Duration : 1h 12mn
Bit rate : 2 137 Kbps
Width : 720 pixels
Height : 400 pixels
Display aspect ratio : 16:9
Frame rate : 25.000 fps
Color space : YUV
Chroma subsampling : 4:2:0
Bit depth : 8 bits
Scan type : Progressive
Bits/(Pixel*Frame) : 0.297
Stream size : 1.08 GiB (73%)
Writing library : XviD 73
Audio #1
ID : 1
Format : AC-3
Format/Info : Audio Coding 3
Mode extension : CM (complete main)
Codec ID : 2000
Duration : 1h 12mn
Bit rate mode : Constant
Bit rate : 384 Kbps
Channel(s) : 6 channels
Channel positions : Front: L C R, Side: L R, LFE
Sampling rate : 48.0 KHz
Bit depth : 16 bits
Stream size : 199 MiB (13%)
Alignment : Split accross interleaves
Interleave, duration : 40 ms (1.00 video frame)
Interleave, preload duration : 500 ms
Title : Russian
Audio #2
ID : 2
Format : AC-3
Format/Info : Audio Coding 3
Mode extension : CM (complete main)
Codec ID : 2000
Duration : 1h 12mn
Bit rate mode : Constant
Bit rate : 384 Kbps
Channel(s) : 6 channels
Channel positions : Front: L C R, Side: L R, LFE
Sampling rate : 48.0 KHz
Bit depth : 16 bits
Stream size : 199 MiB (13%)
Alignment : Split accross interleaves
Interleave, duration : 40 ms (1.00 video frame)
Interleave, preload duration : 500 ms
Title : Norwegian




















Автор рипа: domin8



   Похожие торренты   Торрент   Размер 
В этой теме нет новых непрочитанных сообщений. Солана и Людвиг – Рождество в Флоклипа / Solan og Ludvig - Jul i Flåklypa (2013) DVDRip от New-Team | D

420 | 9

1.46 ГБ

В этой теме нет новых непрочитанных сообщений. Солана и Людвиг – Рождество в Флоклипа / Solan og Ludvig - Jul i Flåklypa (2013) HDRip | L1

237 | 20

1.44 ГБ

В этой теме нет новых непрочитанных сообщений. Солана и Людвиг – Рождество в Флоклипа / Solan og Ludvig - Jul i Flåklypa (2013) BDRip-AVC by marcury

15 | 2

1.41 ГБ

В этой теме нет новых непрочитанных сообщений. Снежные приключения Солана и Людвига / Solan og Ludvig - Jul i Flåklypa (2013) НDRip | Р

82 | 6

1.36 ГБ

В этой теме нет новых непрочитанных сообщений. Снежные приключения Солана и Людвига / Solan og Ludvig - Jul i Flåklypa (2013) BDRip 1080p от NNNB | D, L1

202 | 29

5.76 ГБ

В этой теме нет новых непрочитанных сообщений. Снежные приключения Солана и Людвига / Solan og Ludvig - Jul i Flåklypa (2013) BDRip | Чистый звук

962 | 40

1.46 ГБ

В этой теме нет новых непрочитанных сообщений. Снежные приключения Солана и Людвига / Solan og Ludvig - Jul i Flåklypa (2013) BDRip 720p от Leonardo and Scarabey

108 | 20

2.02 ГБ




Вы не можете начинать темы
Вы не можете отвечать на сообщения
Вы не можете редактировать свои сообщения
Вы не можете удалять свои сообщения
Вы не можете добавлять вложения

Перейти:  
Для Мосгорсуда, Роскомнадзора и рекламодателей: mosgorsud-torrent[собачка]yandex.ru
 Вход
ppkBB3cker v.2 © 2008-2014 @ PPK
[ Time : 0.567s | 15 Queries | GZIP : Off ]

Торрент трекер RUTOR.IN, Не можете зайти на rutor.org? Какой новый адрес рутор? Какое зеркало рутор? Не работает rutor.org и зеркала? Тогда наш торрент специально для вас. Rutor.in неофициальное зеркало rutor. В случае если у Вас заблокирован rutor или вдруг Вы не можете на него зайти, то Вы без труда сможете скачать бесплатно и без рекламы последние новинки кино, игр, сериалов и прочего у нас, на Rutor.in. Не нужно использовать прокси, чтобы зайти на рутор, достаточно воспользоваться нашим ресурсом. Все новые фильмы, игры, сериалы, книги и музыка за 2013 и 2014 годы через торрент бесплатно. Скачивайте фильмы в хорошем качестве, игры для пк, xbox, playstation без регистрации. У нас вы найдете новые Зарубежные сериалы и Русские сериалы 2013, 2014, 2015 годов. Оставайтесь с нами, качайте любимые фильмы, игры, сериалы, книги и музыку.