img image001 image001 image001 image001 image001 image001 image001 image001 image001 image001 image001 image001 image001 image001 image001

Planets Sun Sun Sun
Статистика раздачи
Автор: Nickolas3434 | Размер: 4.86 ГБ | Добавлен: 07 мар 2015
Раздают: 101    Качают: 15
Скачать торрент
Скачать торрент
Описание торрента

СообщениеДобавлено: 07 мар 2015 

Информация о фильме
Название: Робин Гуд
Оригинальное название: Robin Hood
Год выхода: 1973
Жанр: Мультфильм, мелодрама, комедия, приключения, семейный
Режиссер: Вольфганг Райтерман
В ролях: Роджер Миллер, Питер Устинов, Терри-Томас, Брайан Бедфорд, Моника Эванс, Фил Харрис, Энди Дивайн, Кэрол Шелли, Пэт Баттрем, Джордж Линдси

О фильме: Добро пожаловать в дремучий Шервудский лес, где ты встретишь храброго и забавного лисенка по имени Робин Гуд и его лучшего друга Крошку Джона – большого добродушного медведя. Эту веселую компанию давно разыскивает шериф Нотингема. Он готовит друзьям ловушку: на турнире лучников Робин Гуда будет ждать засада. Но отважный лисенок все равно собирается участвовать в состязании: ведь только там у него есть шанс увидеть красавицу Мариан.И вот турнир начался, однако шериф никак не может узнать среди участников переодетого Робин Гуда. Правда, один точный выстрел способен сразу выдать самого лучшего стрелка в королевстве.



Страна: США
Студия: Walt Disney Studios
Продолжительность: 01:23:02
Перевод: Дублированный, профессиональный многоголосый, авторский одноголосый

Файл
Кодек: MPEG-4 AVC
Качество: BDRip 720p
Видео: 6000 Кбит/с, 1200x720, 23.976 кадр/с
Звук:
Аудио #1: Русский (AC3, 2 ch, 192 Кбит/с) / Дублированный (Пифагор)
Аудио #2: Русский (AC3, 6 ch, 448 Кбит/с) / Профессиональный многоголосый (Карусель)
Аудио #3: Русский (AC3, 2 ch, 256 Кбит/с) / Профессиональный многоголосый
Аудио #4: Русский (AC3, 2 ch, 192 Кбит/с) / Авторский одноголосый (Л. Володарский)
Аудио #5: Русский (AC3, 2 ch, 192 Кбит/с) / Авторский одноголосый (В. Горчаков)
Аудио #6: Русский (AC3, 2 ch, 192 Кбит/с) / Авторский одноголосый (А. Михалев - ранний)
Аудио #7: Русский (AC3, 6 ch, 448 Кбит/с) / Авторский одноголосый (А. Михалев - поздний)
Аудио #8: Английский (AC3, 6 ch, 448 Кбит/с)
Субтитры: Русские (3 вида), английские (4 вида)
Семпл

Общее
Уникальный идентификатор : 212852657526025352782153154646568054324 (0xA021EE4183CD77AFA1AFF34208DBAE34)
Полное имя : H:1FilmsHРелизыRobin.Hood.1973.x264.BDRip.720p.MediaClub.mkv
Формат : Matroska
Версия формата : Version 4 / Version 2
Размер файла : 4,86 Гбайт
Продолжительность : 1 ч. 23 м.
Общий поток : 8372 Кбит/сек
Название фильма : -= MediaClub =- rip by Lefevr
Дата кодирования : UTC 2015-02-13 16:39:12
Программа кодирования : mkvmerge v6.1.0 ('Old Devil') built on Mar 4 2013 09:10:42
Библиотека кодирования : libebml v1.3.0 + libmatroska v1.4.0

Видео
Идентификатор : 1
Формат : AVC
Формат/Информация : Advanced Video Codec
Профиль формата : High@L4.1
Параметр CABAC формата : Да
Параметр ReFrames формата : 9 кадров
Идентификатор кодека : V_MPEG4/ISO/AVC
Продолжительность : 1 ч. 23 м.
Битрейт : 6000 Кбит/сек
Ширина : 1200 пикселей
Высота : 720 пикселей
Соотношение сторон : 1,667
Режим частоты кадров : Постоянный
Частота кадров : 23,976 кадра/сек
Цветовое пространство : YUV
Субдискретизация насыщенности : 4:2:0
Битовая глубина : 8 бит
Тип развёртки : Прогрессивная
Бит/(Пиксели*Кадры) : 0.290
Размер потока : 3,39 Гбайт (70%)
Заголовок : Robin.Hood.1973.x264.BDRip.720p.MediaClub
Библиотека кодирования : x264 core 130 r2273 b3065e6
Настройки программы : cabac=1 / ref=9 / deblock=1:-2:-2 / analyse=0x3:0x133 / me=umh / subme=11 / psy=1 / psy_rd=0.90:0.00 / mixed_ref=1 / me_range=32 / chroma_me=1 / trellis=2 / 8x8dct=1 / cqm=0 / deadzone=21,11 / fast_pskip=0 / chroma_qp_offset=-2 / threads=6 / lookahead_threads=1 / sliced_threads=0 / nr=0 / decimate=0 / interlaced=0 / bluray_compat=0 / constrained_intra=0 / bframes=9 / b_pyramid=2 / b_adapt=2 / b_bias=0 / direct=3 / weightb=1 / open_gop=0 / weightp=2 / keyint=240 / keyint_min=23 / scenecut=40 / intra_refresh=0 / rc_lookahead=60 / rc=2pass / mbtree=1 / bitrate=6000 / ratetol=1.0 / qcomp=0.60 / qpmin=0 / qpmax=69 / qpstep=4 / cplxblur=20.0 / qblur=0.5 / ip_ratio=1.40 / aq=1:0.70
Язык : English
Default : Да
Forced : Да

Аудио #1
Идентификатор : 2
Формат : AC-3
Формат/Информация : Audio Coding 3
Расширение режима : CM (complete main)
Параметр Endianness формата : Big
Идентификатор кодека : A_AC3
Продолжительность : 1 ч. 23 м.
Вид битрейта : Постоянный
Битрейт : 192 Кбит/сек
Каналы : 2 канала
Расположение каналов : Front: L R
Частота : 48,0 КГц
Битовая глубина : 16 бит
Метод сжатия : С потерями
Размер потока : 114 Мбайт (2%)
Заголовок : TRACK_01_DUB_RUS_Пифагор
Язык : Russian
Default : Да
Forced : Да

Аудио #2
Идентификатор : 3
Формат : AC-3
Формат/Информация : Audio Coding 3
Расширение режима : CM (complete main)
Параметр Endianness формата : Big
Идентификатор кодека : A_AC3
Продолжительность : 1 ч. 23 м.
Вид битрейта : Постоянный
Битрейт : 448 Кбит/сек
Каналы : 6 каналов
Расположение каналов : Front: L C R, Side: L R, LFE
Частота : 48,0 КГц
Битовая глубина : 16 бит
Метод сжатия : С потерями
Размер потока : 266 Мбайт (5%)
Заголовок : TRACK_02_MVO_RUS_Карусель
Язык : Russian
Default : Нет
Forced : Нет

Аудио #3
Идентификатор : 4
Формат : AC-3
Формат/Информация : Audio Coding 3
Расширение режима : CM (complete main)
Параметр Endianness формата : Big
Идентификатор кодека : A_AC3
Продолжительность : 1 ч. 23 м.
Вид битрейта : Постоянный
Битрейт : 256 Кбит/сек
Каналы : 2 канала
Расположение каналов : Front: L R
Частота : 48,0 КГц
Битовая глубина : 16 бит
Метод сжатия : С потерями
Размер потока : 152 Мбайт (3%)
Заголовок : TRACK_03_MVO_RUS
Язык : Russian
Default : Нет
Forced : Нет

Аудио #4
Идентификатор : 5
Формат : AC-3
Формат/Информация : Audio Coding 3
Расширение режима : CM (complete main)
Параметр Endianness формата : Big
Идентификатор кодека : A_AC3
Продолжительность : 1 ч. 23 м.
Вид битрейта : Постоянный
Битрейт : 192 Кбит/сек
Каналы : 2 канала
Расположение каналов : Front: L R
Частота : 48,0 КГц
Битовая глубина : 16 бит
Метод сжатия : С потерями
Размер потока : 114 Мбайт (2%)
Заголовок : TRACK_04_AVO_RUS_Володарский
Язык : Russian
Default : Нет
Forced : Нет

Аудио #5
Идентификатор : 6
Формат : AC-3
Формат/Информация : Audio Coding 3
Расширение режима : CM (complete main)
Параметр Endianness формата : Big
Идентификатор кодека : A_AC3
Продолжительность : 1 ч. 23 м.
Вид битрейта : Постоянный
Битрейт : 192 Кбит/сек
Каналы : 2 канала
Расположение каналов : Front: L R
Частота : 48,0 КГц
Битовая глубина : 16 бит
Метод сжатия : С потерями
Размер потока : 114 Мбайт (2%)
Заголовок : TRACK_05_AVO_RUS_Горчаков
Язык : Russian
Default : Нет
Forced : Нет

Аудио #6
Идентификатор : 7
Формат : AC-3
Формат/Информация : Audio Coding 3
Расширение режима : CM (complete main)
Параметр Endianness формата : Big
Идентификатор кодека : A_AC3
Продолжительность : 1 ч. 23 м.
Вид битрейта : Постоянный
Битрейт : 192 Кбит/сек
Каналы : 2 канала
Расположение каналов : Front: L R
Частота : 48,0 КГц
Битовая глубина : 16 бит
Метод сжатия : С потерями
Размер потока : 114 Мбайт (2%)
Заголовок : TRACK_06_AVO_RUS_Михалев_ранний
Язык : Russian
Default : Нет
Forced : Нет

Аудио #7
Идентификатор : 8
Формат : AC-3
Формат/Информация : Audio Coding 3
Расширение режима : CM (complete main)
Параметр Endianness формата : Big
Идентификатор кодека : A_AC3
Продолжительность : 1 ч. 23 м.
Вид битрейта : Постоянный
Битрейт : 448 Кбит/сек
Каналы : 6 каналов
Расположение каналов : Front: L C R, Side: L R, LFE
Частота : 48,0 КГц
Битовая глубина : 16 бит
Метод сжатия : С потерями
Размер потока : 266 Мбайт (5%)
Заголовок : TRACK_07_AVO_RUS_Михалев_поздний
Язык : Russian
Default : Нет
Forced : Нет

Аудио #8
Идентификатор : 9
Формат : AC-3
Формат/Информация : Audio Coding 3
Расширение режима : CM (complete main)
Параметр Endianness формата : Big
Идентификатор кодека : A_AC3
Продолжительность : 1 ч. 23 м.
Вид битрейта : Постоянный
Битрейт : 448 Кбит/сек
Каналы : 6 каналов
Расположение каналов : Front: L C R, Side: L R, LFE
Частота : 48,0 КГц
Битовая глубина : 16 бит
Метод сжатия : С потерями
Размер потока : 266 Мбайт (5%)
Заголовок : TRACK_08_ORIGINAL_ENG
Язык : English
Default : Нет
Forced : Нет

Текст #1
Идентификатор : 10
Формат : UTF-8
Идентификатор кодека : S_TEXT/UTF8
Идентификатор кодека/Информация : UTF-8 Plain Text
Заголовок : TEXT_01_SUB_RUS_inions.srt
Язык : Russian
Default : Да
Forced : Да

Текст #2
Идентификатор : 11
Формат : UTF-8
Идентификатор кодека : S_TEXT/UTF8
Идентификатор кодека/Информация : UTF-8 Plain Text
Заголовок : TEXT_02_SUB_RUS_songs.srt
Язык : Russian
Default : Нет
Forced : Да

Текст #3
Идентификатор : 12
Формат : UTF-8
Идентификатор кодека : S_TEXT/UTF8
Идентификатор кодека/Информация : UTF-8 Plain Text
Заголовок : TEXT_03_SUB_RUS_full.srt
Язык : Russian
Default : Нет
Forced : Нет

Текст #4
Идентификатор : 13
Формат : UTF-8
Идентификатор кодека : S_TEXT/UTF8
Идентификатор кодека/Информация : UTF-8 Plain Text
Заголовок : TEXT_04_SUB_ENG_songs.srt
Язык : English
Default : Нет
Forced : Нет

Текст #5
Идентификатор : 14
Формат : UTF-8
Идентификатор кодека : S_TEXT/UTF8
Идентификатор кодека/Информация : UTF-8 Plain Text
Заголовок : TEXT_05_SUB_ENG_songs_SDH.srt
Язык : English
Default : Нет
Forced : Нет

Текст #6
Идентификатор : 15
Формат : UTF-8
Идентификатор кодека : S_TEXT/UTF8
Идентификатор кодека/Информация : UTF-8 Plain Text
Заголовок : TEXT_06_SUB_ENG_SDH.srt
Язык : English
Default : Нет
Forced : Нет

Текст #7
Идентификатор : 16
Формат : UTF-8
Идентификатор кодека : S_TEXT/UTF8
Идентификатор кодека/Информация : UTF-8 Plain Text
Заголовок : TEXT_07_SUB_ENG_full.srt
Язык : English
Default : Нет
Forced : Нет

Меню
00:00:00.000 : en:00:00:00.000
00:03:31.962 : en:00:03:31.962
00:09:10.133 : en:00:09:10.133
00:15:09.617 : en:00:15:09.617
00:20:57.089 : en:00:20:57.089
00:27:01.537 : en:00:27:01.537
00:31:22.172 : en:00:31:22.172
00:37:40.049 : en:00:37:40.049
00:42:00.351 : en:00:42:00.351
00:48:57.643 : en:00:48:57.643
00:51:08.983 : en:00:51:08.983
00:55:10.432 : en:00:55:10.432
01:03:05.198 : en:01:03:05.198
01:05:22.001 : en:01:05:22.001
01:20:30.743 : en:01:20:30.743

...last pass...

x264.exe: --pass 2 --bitrate 6000 --preset veryslow --profile high --level 4.1 --ref 9 --aq-strength 0.7 --deblock -2:-2 --merange 32 --bframes 9 --no-fast-pskip --no-dct-decimate --psy-rd 0.90:0.00 --subme 11 --keyint 240 --sar 1:1 --stats "E:1Films EРелизыRobin Hood 1973W11111.log" --output "E:1Films EРелизыRobin Hood 1973W11111.mkv" "F:Temp\0127.avs"

avs [info]: 1200x720p 1:1 @ 2500000/104271 fps (cfr)
x264 [info]: using SAR=1/1
x264 [info]: using cpu capabilities: MMX2 SSE2Fast SSSE3 SSE4.2 AVX
x264 [info]: profile High, level 4.1
x264 [info]: frame I:1077 Avg QP:15.24 size:176842
x264 [info]: frame P:31707 Avg QP:19.06 size: 63109
x264 [info]: frame B:86663 Avg QP:22.01 size: 17830
x264 [info]: consecutive B-frames: 3.8% 4.6% 13.8% 39.4% 22.1% 10.3% 2.5% 1.2% 1.1% 1.3%
x264 [info]: mb I I16..4: 3.2% 63.7% 33.1%
x264 [info]: mb P I16..4: 0.5% 4.8% 2.3% P16..4: 31.7% 37.7% 18.1% 3.5% 0.5% skip: 0.9%
x264 [info]: mb B I16..4: 0.0% 0.6% 0.4% B16..8: 32.9% 21.3% 5.3% direct: 5.0% skip:34.5% L0:46.3% L1:42.7% BI:11.0%
x264 [info]: 8x8 transform intra:62.3% inter:54.4%
x264 [info]: direct mvs spatial:98.3% temporal:1.7%
x264 [info]: coded y,uvDC,uvAC intra: 89.6% 93.0% 82.3% inter: 33.6% 34.8% 19.6%
x264 [info]: i16 v,h,dc,p: 15% 16% 6% 63%
x264 [info]: i8 v,h,dc,ddl,ddr,vr,hd,vl,hu: 8% 9% 7% 11% 14% 12% 13% 11% 15%
x264 [info]: i4 v,h,dc,ddl,ddr,vr,hd,vl,hu: 11% 10% 4% 10% 16% 12% 13% 10% 13%
x264 [info]: i8c dc,h,v,p: 51% 20% 15% 13%
x264 [info]: Weighted P-Frames: Y:11.4% UV:3.2%
x264 [info]: ref P L0: 39.2% 10.9% 20.9% 7.0% 6.6% 4.1% 4.6% 2.5% 3.0% 1.0% 0.1%
x264 [info]: ref B L0: 60.0% 18.8% 8.0% 4.7% 3.0% 3.0% 1.7% 0.8%
x264 [info]: ref B L1: 91.6% 8.4%
x264 [info]: kb/s:6000.37

x264 [total]: encoded 119447 frames, 4.62 fps, 6000.37 kb/s




Релиз от: | Автор рипа:



   Похожие торренты   Торрент   Размер 
В этой теме нет новых непрочитанных сообщений. Робин Гуд / Robin Hood (1973) BDRip 720p от Leonardo and Scarabey | Лицензия

125 | 21

3.05 ГБ

В этой теме нет новых непрочитанных сообщений. Робин Гуд - принц воров + Робин Гуд / Robin Hood: Prince of Thieves + Robin Hood (1991-2010) BDRip720p

1 | 4

13.24 ГБ

В этой теме нет новых непрочитанных сообщений. Робин Гуд / Robin Hood (1973) BDRip от HQCLUB

1115 | 75

1.46 ГБ

В этой теме нет новых непрочитанных сообщений. Робин Гуд / Robin Hood (1973) BDRip-AVC от 0ptimus | D, P, A

56 | 8

2.82 ГБ

В этой теме нет новых непрочитанных сообщений. Робин Гуд / Robin Hood (1973) BDRip 1080p от Freeisland

87 | 8

5.76 ГБ

В этой теме нет новых непрочитанных сообщений. Робин Гуд / Robin Hood (1973) BDRip | дополнительные материалы

1 | 1

923.49 МБ

В этой теме нет новых непрочитанных сообщений. Робин Гуд / Robin Hood (1973) DVDRip от anton210896 | D, P, A

64 | 12

1.73 ГБ




Вы не можете начинать темы
Вы не можете отвечать на сообщения
Вы не можете редактировать свои сообщения
Вы не можете удалять свои сообщения
Вы не можете добавлять вложения

Перейти:  
Для Мосгорсуда, Роскомнадзора и рекламодателей: mosgorsud-torrent[собачка]yandex.ru
 Вход
ppkBB3cker v.2 © 2008-2014 @ PPK
[ Time : 0.078s | 15 Queries | GZIP : Off ]
CGP output time : 0.058s | 5 Queries | GZIP : Off

Торрент трекер RUTOR.IN, Не можете зайти на rutor.org? Какой новый адрес рутор? Какое зеркало рутор? Не работает rutor.org и зеркала? Тогда наш торрент специально для вас. Rutor.in неофициальное зеркало rutor. В случае если у Вас заблокирован rutor или вдруг Вы не можете на него зайти, то Вы без труда сможете скачать бесплатно и без рекламы последние новинки кино, игр, сериалов и прочего у нас, на Rutor.in. Не нужно использовать прокси, чтобы зайти на рутор, достаточно воспользоваться нашим ресурсом. Все новые фильмы, игры, сериалы, книги и музыка за 2013 и 2014 годы через торрент бесплатно. Скачивайте фильмы в хорошем качестве, игры для пк, xbox, playstation без регистрации. У нас вы найдете новые Зарубежные сериалы и Русские сериалы 2013, 2014, 2015 годов. Оставайтесь с нами, качайте любимые фильмы, игры, сериалы, книги и музыку.