img image001 image001 image001 image001 image001 image001 image001 image001 image001 image001 image001 image001 image001 image001 image001

Planets Sun Sun Sun
Статистика раздачи
Автор: Nickolas3434 | Размер: 7.64 ГБ | Добавлен: 08 мар 2015
Раздают: 324    Качают: 63
Скачать торрент
Скачать торрент
Описание торрента

СообщениеДобавлено: 08 мар 2015 

Информация о фильме
Название: Черепашки-ниндзя (2 сезон, 1-26 серии)
Оригинальное название: Teenage Mutant Ninja Turtles
Год выхода: 2014-2015
Жанр: фантастика, боевик, комедия, приключения, семейный
Режиссер: Майкл Чанг, Алан Ван, Себастьян Монтес
В ролях: Шон Эстин, Грег Сайпс, Роб Полсен, Джейсон Биггз, Хун Ли, Мэй Уитман, Нолан Норт, Кевин Майкл Ричардсон, Брайан Блум, Джош Пек
О фильме: Лео, Раф, Майки и Донни – черепашки-мутанты, научившиеся боевому искусству ниндзюцу у своего сэнсэя Учителя Сплинтера. Выбравшись из канализации на улицы Нью-Йорка, братья оказываются в бурлящем жизнью мегаполисе. Здесь им придется неустанно противостоять самым кровожадным злодеям в истории человечества. В свободное от схваток время ребята занимаются своим любимым делом – дурачатся и едят восхитительную сочную пиццу!
Сражаясь с мастером Шредером, мерзким инопланетянином Крэнгом и толпами сверхмощных мутантов, черепашки учатся стоять друг за друга стеной, чтобы стать теми, кем им предписано быть судьбой – отважными и благородными героями!

Продолжительность: 22 х ~00:24:00 + 2 х~00:42:53
Перевод: Профессиональный (полное дублирование) - SDI Media (По заказу Nickelodeon)
Субтитры: отсутствуют
Файл
Формат: AVI
Качество: WEB-DLRip
Видео: 720 x 400 (1.80:1), 23.976 fps, XviD build 73 ~1665 kbps avg, 0.241 bit/pixel
Аудио: 48 kHz, AC3 Dolby Digital, 2/0 (L,R) ch, ~192 kbps | Дубляж, SDI Media |
Автор рипа: Miheleniya
01. Новые Мутации / The Mutation Situation
02. Нашествие Белканоидов / Invasion Of The Squirrelanoids
03. Следуй За Лидером / Follow the Leader
04. Мутагеноид На Свободе / Mutagen Man Unleashed
05. Микки В Прыщах / Mikey Gets Shellacne
06. Цель: Эйприл О'Нил / Target: April O'Neil
07. Круши и Ломай / Slash And Destroy
08. Хороший, Плохой И Кейси Джонс / The Good, The Bad And Casey Jones
09. Заговор Кренгов / The Kraang Conspiracy
10. Гриб-Гигант / Fungus Humungous
11. Апгрейд Железной головы / Metalhead Rewired
12. О крысах и людях / Of Rats And Men
13-14. Манхеттенский проект / Wormquake
15. Лабиринты И Мутанты / Mazes & Mutants
16. Одинокая Мутация Бакстера Стокмана / The Lonely Mutation Of Baxter Stockman
17. Нейтритон / Newtralized
18. Пиццаликий / Pizza Face
19. Гнев Тигриного Когтя / The Wrath Of Tiger Claw
20. Легенда О Куро Кабуто / The Legend Of The Kuro Kabuto
21. План 10 / Plan 10
22. Месть / Vengeance is Mine
23. История о Призраке Китайского Города / A Chinatown Ghost Story
24. В Измерение Икс / Into Dimension X
25-26. Вторжение / Invasion
Общее
Полное имя : Teenage.Mutant.Ninja.Turtles.s02.DUB Teenage.Mutant.Ninja.Turtles.s02e01.avi
Формат : AVI
Формат/Информация : Audio Video Interleave
Размер файла : 303 Мбайт
Продолжительность : 22 м.
Общий поток : 1867 Кбит/сек
Программа кодирования : VirtualDubMod 1.5.10.3 | www.virtualdub-fr.org || (build 2550/release)
Библиотека кодирования : VirtualDubMod build 2550/release
Видео
Идентификатор : 0
Формат : MPEG-4 Visual
Профиль формата : Advanced Simple@L5
Параметр BVOP формата : 1
Параметр QPel формата : Нет
Параметр GMC формата : Без точки перехода
Параметр матрицы формата : Выборочная
Идентификатор кодека : XVID
Идентификатор кодека/Подсказка : XviD
Продолжительность : 22 м.
Битрейт : 1665 Кбит/сек
Ширина : 720 пикс.
Высота : 400 пикс.
Соотношение сторон : 16:9
Частота кадров : 23,976 кадр/сек
Цветовое пространство : YUV
Подвыборка цветности : 4:2:0
Битовая глубина : 8 бит
Тип развёртки : Прогрессивная
Метод сжатия : С потерями
Бит/(Пиксели*Кадры) : 0.241
Размер потока : 271 Мбайт (89%)
Библиотека кодирования : XviD 73
Аудио
Идентификатор : 1
Формат : AC-3
Формат/Информация : Audio Coding 3
Расширение режима : CM (complete main)
Идентификатор кодека : 2000
Продолжительность : 22 м.
Вид битрейта : Постоянный
Битрейт : 192 Кбит/сек
Канал(ы) : 2 канала(ов)
Расположение каналов : Front: L R
Частота : 48,0 КГц
Битовая глубина : 16 бит
Метод сжатия : С потерями
Размер потока : 31,2 Мбайт (10%)
Выравнивание : Разделение по промежуткам
Продолжительность промежутка : 42 мс. (1,00 видеокадр)
Время предзагрузки промежутка : 500 ms





   Похожие торренты   Торрент   Размер 
В этой теме нет новых непрочитанных сообщений. Черепашки-ниндзя / Черепашки Мутанты Ниндзя / Teenage Mutant Ninja Turtles [03x01-06] (2014-2015) WEB-DLRip

547 | 66

1.19 ГБ

В этой теме нет новых непрочитанных сообщений. Черепашки-ниндзя / Черепашки Мутанты Ниндзя / Teenage Mutant Ninja Turtles [03x01-08] (2014-2015) WEB-DLRip

381 | 35

1.6 ГБ

В этой теме нет новых непрочитанных сообщений. Черепашки-ниндзя / Черепашки Мутанты Ниндзя / Teenage Mutant Ninja Turtles [02x01-22] (2013-2014) WEB-DLRip

73 | 44

4.11 ГБ

В этой теме нет новых непрочитанных сообщений. Черепашки-ниндзя / Черепашки Мутанты Ниндзя / Teenage Mutant Ninja Turtles [02x01-24] (2013-2014) WEB-DLRip

309 | 53

4.49 ГБ

В этой теме нет новых непрочитанных сообщений. Черепашки-ниндзя / Черепашки Мутанты Ниндзя / Teenage Mutant Ninja Turtles [S02] (2013-2014) WEB-DLRip

228 | 59

4.87 ГБ

В этой теме нет новых непрочитанных сообщений. Черепашки-ниндзя / Teenage Mutant Ninja Turtles [S02] (2014-2015) WEB-DLRip | L

239 | 36

7.65 ГБ

В этой теме нет новых непрочитанных сообщений. Черепашки-ниндзя / Teenage Mutant Ninja Turtles [S03] (2014-2015) WEB-DLRip от Semak

431 | 82

5.23 ГБ




Вы не можете начинать темы
Вы не можете отвечать на сообщения
Вы не можете редактировать свои сообщения
Вы не можете удалять свои сообщения
Вы не можете добавлять вложения

Перейти:  
Для Мосгорсуда, Роскомнадзора и рекламодателей: mosgorsud-torrent[собачка]yandex.ru
 Вход
ppkBB3cker v.2 © 2008-2014 @ PPK
[ Time : 0.046s | 15 Queries | GZIP : Off ]

Торрент трекер RUTOR.IN, Не можете зайти на rutor.org? Какой новый адрес рутор? Какое зеркало рутор? Не работает rutor.org и зеркала? Тогда наш торрент специально для вас. Rutor.in неофициальное зеркало rutor. В случае если у Вас заблокирован rutor или вдруг Вы не можете на него зайти, то Вы без труда сможете скачать бесплатно и без рекламы последние новинки кино, игр, сериалов и прочего у нас, на Rutor.in. Не нужно использовать прокси, чтобы зайти на рутор, достаточно воспользоваться нашим ресурсом. Все новые фильмы, игры, сериалы, книги и музыка за 2013 и 2014 годы через торрент бесплатно. Скачивайте фильмы в хорошем качестве, игры для пк, xbox, playstation без регистрации. У нас вы найдете новые Зарубежные сериалы и Русские сериалы 2013, 2014, 2015 годов. Оставайтесь с нами, качайте любимые фильмы, игры, сериалы, книги и музыку.