img image001 image001 image001 image001 image001 image001 image001 image001 image001 image001 image001 image001 image001 image001 image001

Planets Sun Sun Sun
Статистика раздачи
Автор: Nickolas3434 | Размер: 740.72 МБ | Добавлен: 08 мар 2015
Раздают: 416    Качают: 24
Скачать торрент
Скачать торрент
Описание торрента

СообщениеДобавлено: 08 мар 2015 

Информация о фильме
Название: Тайна третьей планеты
Год выхода: 1981
Жанр: Мультфильм, Фантастика
Продолжительность: 00:47:34
Режиссер: Роман Качанов
Сценарий: Кир Булычёв
Композитор: Александр Зацепин
Роли озвучивали: Юрий Андреев, Владимир Дружников, Владимир Кенигсон, Василий Ливанов, Григорий Шпигель, Юрий Волынцев, Игорь Ясулович, Рина Зеленая, Всеволод Ларионов, Ольга Громова
О фильме: Приключения девочки Алисы, ее ученого папы и меланхолика капитана Зеленого, а также добродушного чудовища Громозеки и птицы Говоруна, который, как известно, отличается умом и сообразительностью...

Страна: СССР
Студия: Союзмультфильм
Перевод: Не требуется (оригинальный)
Файл
Кодек: avi
Качество: DVDRip (DVD5 КП реставрация)
Видео: XviD, 704x528, 25fps, 1720kbps
Аудио: AC3 Dolby Digital, 6channel, 48000Hz, 448kbps
General
Complete name : Taina.Tretei.Planety.1981.O.DVDRip.700.MediaClub.CurHaJI.avi
Format : AVI
Format/Info : Audio Video Interleave
File size : 741 MiB
Duration : 47mn 34s
Overall bit rate : 2 177 Kbps
Movie name : Taina.Tretei.Planety.1981.O.DVDRip.700.MediaClub.CurHaJI
Writing application : VirtualDubMod 1.5.10.3 | www.virtualdub-fr.org || (build 2550/release)
Writing library : VirtualDub build 35491/release
Video
ID : 0
Format : MPEG-4 Visual
Format profile : Advanced Simple@L5
Format settings, BVOP : 1
Format settings, QPel : No
Format settings, GMC : No warppoints
Format settings, Matrix : Custom
Codec ID : XVID
Codec ID/Hint : XviD
Duration : 47mn 34s
Bit rate : 1 720 Kbps
Width : 704 pixels
Height : 528 pixels
Display aspect ratio : 4:3
Frame rate : 25.000 fps
Color space : YUV
Chroma subsampling : 4:2:0
Bit depth : 8 bits
Scan type : Progressive
Compression mode : Lossy
Bits/(Pixel*Frame) : 0.185
Stream size : 585 MiB (79%)
Writing library : XviD 1.2.1 (UTC 2008-12-04)
Audio
ID : 1
Format : AC-3
Format/Info : Audio Coding 3
Mode extension : CM (complete main)
Format settings, Endianness : Big
Codec ID : 2000
Duration : 47mn 26s
Bit rate mode : Constant
Bit rate : 448 Kbps
Channel(s) : 6 channels
Channel positions : Front: L C R, Side: L R, LFE
Sampling rate : 48.0 KHz
Bit depth : 16 bits
Compression mode : Lossy
Stream size : 152 MiB (21%)
Alignment : Split accross interleaves
Interleave, duration : 40 ms (1.00 video frame)
Interleave, preload duration : 500 ms


Релиз от:



   Похожие торренты   Торрент   Размер 
В этой теме нет новых непрочитанных сообщений. Тайна третьей планеты (1981) DVDRip от R.G.RealMT | Реставрация

169 | 6

640.82 МБ

В этой теме нет новых непрочитанных сообщений. Тайна третьей планеты (1981) DVDRip от R.G. Mobile-Men | Реставрация

162 | 13

556.1 МБ

В этой теме нет новых непрочитанных сообщений. Тайна третьей планеты (1981) DVDRip-AVC

218 | 15

265.47 МБ

В этой теме нет новых непрочитанных сообщений. Тайна третьей планеты (1978-1981) DVD5

78 | 2

4.2 ГБ

В этой теме нет новых непрочитанных сообщений. Тайна третьей планеты (1978-1981) DVDRemux

268 | 17

2.32 ГБ

В этой теме нет новых непрочитанных сообщений. Тайна третьей планеты (1978-1988) DVDRip

154 | 11

1.62 ГБ

В этой теме нет новых непрочитанных сообщений. Булычев Кир - Тайна Третьей планеты (2006) MP3

63 | 3

297.82 МБ




Вы не можете начинать темы
Вы не можете отвечать на сообщения
Вы не можете редактировать свои сообщения
Вы не можете удалять свои сообщения
Вы не можете добавлять вложения

Перейти:  
Для Мосгорсуда, Роскомнадзора и рекламодателей: mosgorsud-torrent[собачка]yandex.ru
 Вход
ppkBB3cker v.2 © 2008-2014 @ PPK
[ Time : 0.022s | 16 Queries | GZIP : Off ]

Торрент трекер RUTOR.IN, Не можете зайти на rutor.org? Какой новый адрес рутор? Какое зеркало рутор? Не работает rutor.org и зеркала? Тогда наш торрент специально для вас. Rutor.in неофициальное зеркало rutor. В случае если у Вас заблокирован rutor или вдруг Вы не можете на него зайти, то Вы без труда сможете скачать бесплатно и без рекламы последние новинки кино, игр, сериалов и прочего у нас, на Rutor.in. Не нужно использовать прокси, чтобы зайти на рутор, достаточно воспользоваться нашим ресурсом. Все новые фильмы, игры, сериалы, книги и музыка за 2013 и 2014 годы через торрент бесплатно. Скачивайте фильмы в хорошем качестве, игры для пк, xbox, playstation без регистрации. У нас вы найдете новые Зарубежные сериалы и Русские сериалы 2013, 2014, 2015 годов. Оставайтесь с нами, качайте любимые фильмы, игры, сериалы, книги и музыку.
cron