img image001 image001 image001 image001 image001 image001 image001 image001 image001 image001 image001 image001 image001 image001 image001

Planets Sun Sun Sun
Статистика раздачи
Автор: Nickolas3434 | Размер: 1.41 ГБ | Добавлен: 08 мар 2015
Раздают: 15    Качают: 2
Скачать торрент
Скачать торрент
Описание торрента

СообщениеДобавлено: 08 мар 2015 

Информация о фильме
Название: Солана и Людвиг – Рождество в Флоклипа
Оригинальное название: Solan og Ludvig - Jul i Flåklypa
Год выхода: 2013
Жанр: Мультфильм, семейный, приключения, экранизация, полнометражный
Режиссер: Расмус А. Сивертсен
В ролях: Тронд Бренне, Андерс Бай, Каре Конради, Кари Анн Грёнсунд, Тронд Хёвик
О фильме:
«Солан и Людвиг - Рождество во Флоклипе» - продолжение истории о полюбившихся всем персонажах Солане, Людвиг и Реодоре Фельгене. На сей раз они готовятся к Рождеству. Единственная проблема заключается в том, что в деревне не выпал снег, а этого Людвигу хочется больше всего. Поэтому изобретатель Реодор изготавливает самую мощную в мире снеговую пушку. Она попадает в руки редактора местной газеты Фриманда Плёсена, мечтающего о снежном буране. Тут-то и начинаются проблемы: бушует метель, Реодор исчез, и Солану с Людвигом приходится самим разбираться во всем этом хаосе.
Страна: Норвегия
Студия: Aukruststiftelsen, Maipo Film, Qvisten Animation
Продолжительность: 01:16:25
Перевод: Дублированный, любительский одноголосый
Файл
Кодек: MPEG-4 AVC
Качество: BDRip (AVC)
Видео: 1680 Кбит/сек, 1024х576
Звук: Русский (AC3, 2 ch, 192 Кбит/с), (AC3, 6 ch, 384 Кбит/с), норвежский (AC3, 6 ch, 384 Кбит/с)
Субтитры: Английские
Общее
Уникальный идентификатор : 183762525219026067303635582895118384981 (0x8A3F5FFFD6F52DAEAC54E28906147F55)
Полное имя : D:РипчикиSolan.og.Ludvig.2013.x264.BDRip.(AVC).marcury.mkv
Формат : Matroska
Версия формата : Version 4 / Version 2
Размер файла : 1,41 Гбайт
Продолжительность : 1 ч. 16 м.
Общий поток : 2642 Кбит/сек
Название фильма : Solan og Ludvig - 2013 - Rip by marcury
Дата кодирования : UTC 2015-03-07 16:52:13
Программа кодирования : mkvmerge v7.7.0 ('Six Voices') 64bit built on Feb 28 2015 23:39:33
Библиотека кодирования : libebml v1.3.1 + libmatroska v1.4.2
_STATISTICS_WRITING_APP : mkvmerge v7.7.0 ('Six Voices') 64bit built on Feb 28 2015 23:39:33
_STATISTICS_WRITING_DATE_UTC : 2015-03-07 16:52:13
_STATISTICS_TAGS : BPS DURATION NUMBER_OF_FRAMES NUMBER_OF_BYTES
DURATION : 01:16:25.472000000
NUMBER_OF_FRAMES : 143296
NUMBER_OF_BYTES : 220102656
Видео
Идентификатор : 1
Формат : AVC
Формат/Информация : Advanced Video Codec
Профиль формата : High@L4.1
Параметр CABAC формата : Да
Параметр ReFrames формата : 10 кадров
Идентификатор кодека : V_MPEG4/ISO/AVC
Продолжительность : 1 ч. 16 м.
Битрейт : 1680 Кбит/сек
Ширина : 1024 пикселя
Высота : 576 пикселей
Соотношение сторон : 16:9
Режим частоты кадров : Постоянный
Частота кадров : 24,000 кадра/сек
Цветовое пространство : YUV
Субдискретизация насыщенности : 4:2:0
Битовая глубина : 8 бит
Тип развёртки : Прогрессивная
Бит/(Пиксели*Кадры) : 0.119
Размер потока : 891 Мбайт (62%)
Заголовок : Солана и Людвиг - Рождество в Флоклипа / Solan og Ludvig - Jul i Flåklypa / 2013 / BDRip (AVC)
Библиотека кодирования : x264 core 130 r2273 b3065e6
Настройки программы : cabac=1 / ref=10 / deblock=1:-2:-2 / analyse=0x3:0x133 / me=umh / subme=9 / psy=1 / psy_rd=1.00:0.10 / mixed_ref=1 / me_range=32 / chroma_me=1 / trellis=2 / 8x8dct=1 / cqm=0 / deadzone=21,11 / fast_pskip=0 / chroma_qp_offset=-3 / threads=6 / lookahead_threads=1 / sliced_threads=0 / nr=0 / decimate=0 / interlaced=0 / bluray_compat=0 / constrained_intra=0 / bframes=10 / b_pyramid=2 / b_adapt=2 / b_bias=0 / direct=3 / weightb=1 / open_gop=0 / weightp=2 / keyint=240 / keyint_min=23 / scenecut=40 / intra_refresh=0 / rc=2pass / mbtree=0 / bitrate=1680 / ratetol=1.0 / qcomp=0.60 / qpmin=0 / qpmax=69 / qpstep=4 / cplxblur=20.0 / qblur=0.5 / ip_ratio=1.40 / pb_ratio=1.30 / aq=1:1.00
Язык : English
Default : Да
Forced : Нет
DURATION : 01:16:25.421000000
NUMBER_OF_FRAMES : 110050
NUMBER_OF_BYTES : 962875674
_STATISTICS_WRITING_APP : mkvmerge v7.7.0 ('Six Voices') 64bit built on Feb 28 2015 23:39:33
_STATISTICS_WRITING_DATE_UTC : 2015-03-07 16:52:13
_STATISTICS_TAGS : BPS DURATION NUMBER_OF_FRAMES NUMBER_OF_BYTES
Аудио #1
Идентификатор : 2
Формат : AC-3
Формат/Информация : Audio Coding 3
Расширение режима : CM (complete main)
Параметр Endianness формата : Big
Идентификатор кодека : A_AC3
Продолжительность : 1 ч. 16 м.
Вид битрейта : Постоянный
Битрейт : 192 Кбит/сек
Каналы : 2 канала
Расположение каналов : Front: L R
Частота : 48,0 КГц
Битовая глубина : 16 бит
Метод сжатия : С потерями
Размер потока : 105 Мбайт (7%)
Заголовок : Русский (AC3, 2 ch, 192 Кбит/с) - Дубляж
Язык : Russian
Default : Да
Forced : Нет
Аудио #2
Идентификатор : 3
Формат : AC-3
Формат/Информация : Audio Coding 3
Расширение режима : CM (complete main)
Параметр Endianness формата : Big
Идентификатор кодека : A_AC3
Продолжительность : 1 ч. 16 м.
Вид битрейта : Постоянный
Битрейт : 384 Кбит/сек
Каналы : 6 каналов
Расположение каналов : Front: L C R, Side: L R, LFE
Частота : 48,0 КГц
Битовая глубина : 16 бит
Метод сжатия : С потерями
Размер потока : 210 Мбайт (15%)
Заголовок : Русский (AC3, 6 ch, 384 Кбит/с) - Любительский одноголосый [Max Nabokov]
Язык : Russian
Default : Нет
Forced : Нет
Аудио #3
Идентификатор : 4
Формат : AC-3
Формат/Информация : Audio Coding 3
Расширение режима : CM (complete main)
Параметр Endianness формата : Big
Идентификатор кодека : A_AC3
Продолжительность : 1 ч. 16 м.
Вид битрейта : Постоянный
Битрейт : 384 Кбит/сек
Каналы : 6 каналов
Расположение каналов : Front: L C R, Side: L R, LFE
Частота : 48,0 КГц
Битовая глубина : 16 бит
Метод сжатия : С потерями
Размер потока : 210 Мбайт (15%)
Заголовок : Норвежский (AC3, 6 ch, 384 Кбит/с) - Оригинал
Язык : Norwegian
Default : Нет
Forced : Нет
Текст
Идентификатор : 5
Формат : UTF-8
Идентификатор кодека : S_TEXT/UTF8
Идентификатор кодека/Информация : UTF-8 Plain Text
Заголовок : Eng Sub
Язык : English
Default : Нет
Forced : Нет


Релиз от:



   Похожие торренты   Торрент   Размер 
В этой теме нет новых непрочитанных сообщений. Солана и Людвиг – Рождество в Флоклипа / Solan og Ludvig - Jul i Flåklypa (2013) HDRip | L1

237 | 20

1.44 ГБ

В этой теме нет новых непрочитанных сообщений. Солана и Людвиг – Рождество в Флоклипа / Solan og Ludvig - Jul i Flåklypa (2013) DVDRip от New-Team | D

420 | 9

1.46 ГБ

В этой теме нет новых непрочитанных сообщений. Снежные приключения Солана и Людвига / Solan og Ludvig - Jul i Flåklypa (2013) BDRip от HQCLUB | D

3 | 0

1.45 ГБ

В этой теме нет новых непрочитанных сообщений. Снежные приключения Солана и Людвига / Solan og Ludvig - Jul i Flåklypa (2013) BDRip 1080p от NNNB | D, L1

202 | 29

5.76 ГБ

В этой теме нет новых непрочитанных сообщений. Снежные приключения Солана и Людвига / Solan og Ludvig - Jul i Flåklypa (2013) BDRip | Чистый звук

962 | 40

1.46 ГБ

В этой теме нет новых непрочитанных сообщений. Снежные приключения Солана и Людвига / Solan og Ludvig - Jul i Flåklypa (2013) BDRip 720p от Leonardo and Scarabey

98 | 5

2.02 ГБ

В этой теме нет новых непрочитанных сообщений. Снежные приключения Солана и Людвига / Solan og Ludvig - Jul i Flåklypa (2013) НDRip | Р

87 | 6

1.36 ГБ




Вы не можете начинать темы
Вы не можете отвечать на сообщения
Вы не можете редактировать свои сообщения
Вы не можете удалять свои сообщения
Вы не можете добавлять вложения

Перейти:  
Для Мосгорсуда, Роскомнадзора и рекламодателей: mosgorsud-torrent[собачка]yandex.ru
 Вход
ppkBB3cker v.2 © 2008-2014 @ PPK
[ Time : 0.080s | 15 Queries | GZIP : Off ]

Торрент трекер RUTOR.IN, Не можете зайти на rutor.org? Какой новый адрес рутор? Какое зеркало рутор? Не работает rutor.org и зеркала? Тогда наш торрент специально для вас. Rutor.in неофициальное зеркало rutor. В случае если у Вас заблокирован rutor или вдруг Вы не можете на него зайти, то Вы без труда сможете скачать бесплатно и без рекламы последние новинки кино, игр, сериалов и прочего у нас, на Rutor.in. Не нужно использовать прокси, чтобы зайти на рутор, достаточно воспользоваться нашим ресурсом. Все новые фильмы, игры, сериалы, книги и музыка за 2013 и 2014 годы через торрент бесплатно. Скачивайте фильмы в хорошем качестве, игры для пк, xbox, playstation без регистрации. У нас вы найдете новые Зарубежные сериалы и Русские сериалы 2013, 2014, 2015 годов. Оставайтесь с нами, качайте любимые фильмы, игры, сериалы, книги и музыку.