img image001 image001 image001 image001 image001 image001 image001 image001 image001 image001 image001 image001 image001 image001 image001

Planets Sun Sun Sun
Статистика раздачи
Автор: Nickolas3434 | Размер: 2.06 ГБ | Добавлен: 11 мар 2015
Раздают: 104    Качают: 6
Скачать торрент
Скачать торрент
Описание торрента

СообщениеДобавлено: 11 мар 2015 

Информация о фильме
Название: 7-ой гном
Оригинальное название: Der 7bte Zwerg
Год выхода: 2014
Жанр: Мультфильм, семейный, приключения
Режиссер: Борис Альинович
В ролях: Элвин Камерон, Нина Хаген, Норберт Хейстеркамп, Мирко Нончев, Ана Сани, Ральф Шмитц, Мартин Шнайдер, Отто Ваалкес, Густав-Петер Вёлер
О фильме:
В замке Фантабулараса большой переполох: принцесса Роза празднует свой 18-й день рождения. Приняты самые строгие меры безопасности, ведь злобная Колдунья Делламорта, которая прокляла Розу на ее крестинах, не позволит проклятию раствориться в воздухе. Семеро гномов – Умник, Рыжик, Ворчун, Соня, Силач, Бодряк и Бобо – ничего не знают об этом, когда отправляются на праздник в замок, мечтая повеселиться… Бобо, самый маленький гном, случайно запускает тайный механизм в кольце Колдуньи, и принцесса вместе со всеми гостями замерзает. Гномы спасаются в самую последнюю секунду. Теперь, чтобы все исправить, им придется отправиться в опасное путешествие и найти возлюбленного принцессы, похищенного драконом злобной Делламорты.
Страна: Германия
Студия: Zipfelmützen GmbH & Co. KG, Erfttal Film, Animationsfabrik
Продолжительность: 01:27:52
Перевод: Профессиональный (полное дублирование)
Файл
Кодек: h264
Качество: BDRip 720 от SuperMin
Видео: 1280x690 (1,85:1), 2397 kbps, 23.976 fps
Звук:
Русский (AC-3, 6ch, 448 kbps)
Оригинал (AC-3, 6ch, 448 kbps)
Video
ID : 1
Format : AVC
Format/Info : Advanced Video Codec
Format profile : High@L4.1
Format settings, CABAC : Yes
Format settings, ReFrames : 9 frames
Codec ID : V_MPEG4/ISO/AVC
Duration : 1h 27mn
Bit rate : 2 397 Kbps
Width : 1 280 pixels
Height : 690 pixels
Display aspect ratio : 1.85:1
Frame rate mode : Constant
Frame rate : 23.976 fps
Color space : YUV
Chroma subsampling : 4:2:0
Bit depth : 8 bits
Scan type : Progressive
Bits/(Pixel*Frame) : 0.113
Stream size : 1.47 GiB (71%)
Writing library : x264 core 144 r2525kMod 40bb568
Encoding settings : cabac=1 / ref=9 / deblock=1:0:0 / analyse=0x3:0x133 / me=umh / subme=9 / psy=1 / fade_compensate=0.00 / psy_rd=1.00:0.15 / mixed_ref=1 / me_range=32 / chroma_me=1 / trellis=2 / 8x8dct=1 / cqm=0 / deadzone=21,11 / fast_pskip=1 / chroma_qp_offset=-3 / threads=2 / lookahead_threads=1 / sliced_threads=0 / nr=0 / decimate=1 / interlaced=0 / bluray_compat=0 / constrained_intra=0 / fgo=0 / bframes=5 / b_pyramid=2 / b_adapt=2 / b_bias=0 / direct=3 / weightb=1 / open_gop=0 / weightp=2 / keyint=240 / keyint_min=23 / scenecut=40 / intra_refresh=0 / rc_lookahead=40 / rc=crf / mbtree=1 / crf=19.0000 / qcomp=0.60 / qpmin=0 / qpmax=69 / qpstep=4 / ip_ratio=1.40 / aq=1:1.00
Default : Yes
Forced : No
Audio #1
ID : 2
Format : AC-3
Format/Info : Audio Coding 3
Mode extension : CM (complete main)
Format settings, Endianness : Big
Codec ID : A_AC3
Duration : 1h 27mn
Bit rate mode : Constant
Bit rate : 448 Kbps
Channel(s) : 6 channels
Channel positions : Front: L C R, Side: L R, LFE
Sampling rate : 48.0 KHz
Bit depth : 16 bits
Compression mode : Lossy
Stream size : 282 MiB (13%)
Title : AC3 / 5.1 / 48 kHz / 448 kbps / Licence R5
Language : Russian
Default : Yes
Forced : No
Audio #2
ID : 3
Format : AC-3
Format/Info : Audio Coding 3
Mode extension : CM (complete main)
Format settings, Endianness : Big
Codec ID : A_AC3
Duration : 1h 27mn
Bit rate mode : Constant
Bit rate : 448 Kbps
Channel(s) : 6 channels
Channel positions : Front: L C R, Side: L R, LFE
Sampling rate : 48.0 KHz
Bit depth : 16 bits
Compression mode : Lossy
Stream size : 282 MiB (13%)
Default : No
Forced : No


Релиз от: SuperMin



   Похожие торренты   Торрент   Размер 
В этой теме нет новых непрочитанных сообщений. 7-ой гном / Der 7bte Zwerg (2014) BDRip от Twi7ter | D | Лицензия

386 | 15

1.46 ГБ

В этой теме нет новых непрочитанных сообщений. 7-ой гном / Der 7bte Zwerg (2014) BDRip-AVC от HELLYWOOD | Лицензия

176 | 7

2.18 ГБ

В этой теме нет новых непрочитанных сообщений. 7-ой гном / Der 7bte Zwerg (2014) BDRip 720p | KinoGadget | iPad

206 | 17

1.31 ГБ

В этой теме нет новых непрочитанных сообщений. 7-ой гном / Der 7bte Zwerg (2014) BDRip 1080p от Ash61 | 3D-Video | halfOU

848 | 36

5.37 ГБ

В этой теме нет новых непрочитанных сообщений. 7-ой гном / Der 7bte Zwerg (2014) WEB-DL 1080p | Лицензия

928 | 67

5.29 ГБ

В этой теме нет новых непрочитанных сообщений. 7-ой гном / Der 7bte Zwerg (2014) DVDRip | Лицензия

7403 | 412

1.37 ГБ

В этой теме нет новых непрочитанных сообщений. 7-ой гном / Der 7bte Zwerg (2014) DVDRip | Лицензия

1243 | 55

703.13 МБ




Вы не можете начинать темы
Вы не можете отвечать на сообщения
Вы не можете редактировать свои сообщения
Вы не можете удалять свои сообщения
Вы не можете добавлять вложения

Перейти:  
Для Мосгорсуда, Роскомнадзора и рекламодателей: mosgorsud-torrent[собачка]yandex.ru
 Вход
ppkBB3cker v.2 © 2008-2014 @ PPK
[ Time : 0.063s | 16 Queries | GZIP : Off ]

Торрент трекер RUTOR.IN, Не можете зайти на rutor.org? Какой новый адрес рутор? Какое зеркало рутор? Не работает rutor.org и зеркала? Тогда наш торрент специально для вас. Rutor.in неофициальное зеркало rutor. В случае если у Вас заблокирован rutor или вдруг Вы не можете на него зайти, то Вы без труда сможете скачать бесплатно и без рекламы последние новинки кино, игр, сериалов и прочего у нас, на Rutor.in. Не нужно использовать прокси, чтобы зайти на рутор, достаточно воспользоваться нашим ресурсом. Все новые фильмы, игры, сериалы, книги и музыка за 2013 и 2014 годы через торрент бесплатно. Скачивайте фильмы в хорошем качестве, игры для пк, xbox, playstation без регистрации. У нас вы найдете новые Зарубежные сериалы и Русские сериалы 2013, 2014, 2015 годов. Оставайтесь с нами, качайте любимые фильмы, игры, сериалы, книги и музыку.
cron