img image001 image001 image001 image001 image001 image001 image001 image001 image001 image001 image001 image001 image001 image001 image001

Planets Sun Sun Sun
Статистика раздачи
Автор: Nickolas3434 | Размер: 7.02 ГБ | Добавлен: 13 мар 2015
Раздают: 56    Качают: 5
Скачать торрент
Скачать торрент
Описание торрента

СообщениеДобавлено: 13 мар 2015 

Информация о фильме
Название: Феи: Легенда о чудовище
Оригинальное название: Tinkerbell And The Legend Of The Neverbeast
Год выпуска: 2014
Жанр: Мультфильм, фэнтези, приключения, семейный
Выпущено: США, DisneyToon Studios, Prana Studios
Режиссер: Стив Лотер
В ролях: Джиннифер Гудвин, Розарио Доусон, Рэйвен, Мэй Уитман, Люси Лью, Томас Леннон, Памела Адлон, Меган Хилти, Мелани Браун
О фильме: Анимационная сказка расскажет удивительную историю о веселой и талантливой фее Фауне, которая убеждена в том, что о книге нельзя судить по ее обложке, впрочем, как и о животном по его клыкам, поэтому она дружит с таинственным существом громадных размеров из Нетландии по прозвищу Чудовище. В это время группа волшебных фей разведки не настолько уверены в этом страшном звере и намереваются захватить его прежде, чем он уничтожит их дома. Они хотят отправиться на поиски Чудовища. Фауна, чтобы спасти своего нового друга, остается лишь доказать всем, что он — существо доброе и не собирается вредить другим.

Файл
Качество: BDRip (1080p)
Видео: MPEG-4 AVC, 9999 Кбит/с, 1920x1080, 23.976 кадр/с
Аудио: Русский (AC3, 6 ch, 384 Кбит/с), французский, испанский (AC3, 6 ch, 640 Кбит/с), английский (DTS, 6 ch, 1509 Кбит/с)
Размер: 7.02 ГБ
Продолжительность: 01:16:15
Перевод: Дублированный
Субтитры: Английские
Озвучивание: Дублированное (iTunes Russia)
Сохранены оригинальные чаптеры.
x264 [info]: frame I:1043 Avg QP:14.72 size:459064
x264 [info]: frame P:29889 Avg QP:18.33 size:111306
x264 [info]: frame B:78750 Avg QP:20.91 size: 24280
x264 [info]: consecutive B-frames: 6.7% 3.4% 12.2% 27.2% 19.6% 27.6% 1.8% 0.5% 0.3% 0.8%
x264 [info]: mb I I16..4: 29.9% 59.0% 11.1%
x264 [info]: mb P I16..4: 1.8% 10.4% 1.1% P16..4: 34.3% 33.8% 11.3% 4.1% 1.0% skip: 2.3%
x264 [info]: mb B I16..4: 0.5% 1.3% 0.1% B16..8: 39.8% 16.0% 2.0% direct: 3.5% skip:36.8% L0:46.0% L1:44.7% BI: 9.3%
x264 [info]: 8x8 transform intra:72.3% inter:60.2%
x264 [info]: direct mvs spatial:97.3% temporal:2.7%
x264 [info]: coded y,uvDC,uvAC intra: 94.0% 88.7% 63.5% inter: 21.2% 29.8% 13.6%
x264 [info]: i16 v,h,dc,p: 3% 4% 39% 54%
x264 [info]: i8 v,h,dc,ddl,ddr,vr,hd,vl,hu: 8% 7% 7% 10% 15% 14% 14% 12% 13%
x264 [info]: i4 v,h,dc,ddl,ddr,vr,hd,vl,hu: 10% 6% 8% 8% 17% 15% 14% 10% 11%
x264 [info]: i8c dc,h,v,p: 46% 20% 15% 19%
x264 [info]: Weighted P-Frames: Y:2.4% UV:1.8%
x264 [info]: ref P L0: 56.3% 8.7% 23.9% 9.1% 2.0% 0.0%
x264 [info]: ref B L0: 84.1% 12.6% 3.3%
x264 [info]: ref B L1: 92.3% 7.7%
x264 [info]: kb/s:9998.89

Общее
Уникальный идентификатор : 206344813870954080053322827389517899043 (0x9B3C90CA86C44710BE466C97C7AF2523)
Полное имя : D:ЗагрузкиTinkerbell.And.The.Legend.Of.The.Neverbeast.2014.x264.BDRip.(1080p).ExKinoRay.mkv
Формат : Matroska
Версия формата : Version 2
Размер файла : 7,02 Гбайт
Продолжительность : 1 ч. 16 м.
Общий поток : 13,2 Мбит/сек
Название фильма : Феи: Легенда о чудовище.2014.Rip by: ollan
Дата кодирования : UTC 2015-03-11 19:34:52
Программа кодирования : mkvmerge v5.6.0 ('Kenya Kane') built on May 27 2012 16:44:04
Библиотека кодирования : libebml v1.2.3 + libmatroska v1.3.0
Видео
Идентификатор : 1
Формат : AVC
Формат/Информация : Advanced Video Codec
Профиль формата : High@L4.1
Параметр CABAC формата : Да
Параметр ReFrames формата : 4 кадра
Идентификатор кодека : V_MPEG4/ISO/AVC
Продолжительность : 1 ч. 16 м.
Битрейт : 9999 Кбит/сек
Ширина : 1920 пикселей
Высота : 1080 пикселей
Соотношение сторон : 16:9
Режим частоты кадров : Постоянный
Частота кадров : 23,976 кадра/сек
Цветовое пространство : YUV
Субдискретизация насыщенности : 4:2:0
Битовая глубина : 8 бит
Тип развёртки : Прогрессивная
Бит/(Пиксели*Кадры) : 0.201
Размер потока : 5,19 Гбайт (74%)
Библиотека кодирования : x264 core 125 r2200 999b753
Настройки программы : cabac=1 / ref=4 / deblock=1:-3:-3 / analyse=0x3:0x133 / me=umh / subme=11 / psy=1 / psy_rd=1.00:0.10 / mixed_ref=1 / me_range=32 / chroma_me=1 / trellis=2 / 8x8dct=1 / cqm=0 / deadzone=21,11 / fast_pskip=0 / chroma_qp_offset=-3 / threads=12 / lookahead_threads=2 / sliced_threads=0 / nr=0 / decimate=0 / interlaced=0 / bluray_compat=0 / constrained_intra=0 / bframes=9 / b_pyramid=2 / b_adapt=2 / b_bias=0 / direct=3 / weightb=1 / open_gop=0 / weightp=2 / keyint=240 / keyint_min=23 / scenecut=40 / intra_refresh=0 / rc_lookahead=60 / rc=2pass / mbtree=1 / bitrate=9999 / ratetol=1.0 / qcomp=0.60 / qpmin=0 / qpmax=69 / qpstep=4 / cplxblur=20.0 / qblur=0.5 / ip_ratio=1.40 / aq=1:1.00
Язык : English
Default : Да
Forced : Нет
Аудио #1
Идентификатор : 2
Формат : AC-3
Формат/Информация : Audio Coding 3
Расширение режима : CM (complete main)
Параметр Endianness формата : Big
Идентификатор кодека : A_AC3
Продолжительность : 1 ч. 16 м.
Вид битрейта : Постоянный
Битрейт : 384 Кбит/сек
Каналы : 6 каналов
Расположение каналов : Front: L C R, Side: L R, LFE
Частота : 48,0 КГц
Битовая глубина : 16 бит
Метод сжатия : С потерями
Размер потока : 209 Мбайт (3%)
Заголовок : Дублированный (iTunes Russia)
Язык : Russian
Default : Да
Forced : Нет
Аудио #2
Идентификатор : 3
Формат : AC-3
Формат/Информация : Audio Coding 3
Расширение режима : CM (complete main)
Параметр Endianness формата : Big
Идентификатор кодека : A_AC3
Продолжительность : 1 ч. 16 м.
Вид битрейта : Постоянный
Битрейт : 640 Кбит/сек
Каналы : 6 каналов
Расположение каналов : Front: L C R, Side: L R, LFE
Частота : 48,0 КГц
Битовая глубина : 16 бит
Метод сжатия : С потерями
Размер потока : 349 Мбайт (5%)
Язык : French
Default : Нет
Forced : Нет
Аудио #3
Идентификатор : 4
Формат : AC-3
Формат/Информация : Audio Coding 3
Расширение режима : CM (complete main)
Параметр Endianness формата : Big
Идентификатор кодека : A_AC3
Продолжительность : 1 ч. 16 м.
Вид битрейта : Постоянный
Битрейт : 640 Кбит/сек
Каналы : 6 каналов
Расположение каналов : Front: L C R, Side: L R, LFE
Частота : 48,0 КГц
Битовая глубина : 16 бит
Метод сжатия : С потерями
Размер потока : 349 Мбайт (5%)
Язык : Spanish
Default : Нет
Forced : Нет
Аудио #4
Идентификатор : 5
Формат : DTS
Формат/Информация : Digital Theater Systems
Режим : 16
Параметр Endianness формата : Big
Идентификатор кодека : A_DTS
Продолжительность : 1 ч. 16 м.
Вид битрейта : Постоянный
Битрейт : 1509 Кбит/сек
Каналы : 6 каналов
Расположение каналов : Front: L C R, Side: L R, LFE
Частота : 48,0 КГц
Битовая глубина : 24 бит
Метод сжатия : С потерями
Размер потока : 823 Мбайт (11%)
Язык : English
Default : Нет
Forced : Нет
Текст
Идентификатор : 6
Формат : UTF-8
Идентификатор кодека : S_TEXT/UTF8
Идентификатор кодека/Информация : UTF-8 Plain Text
Заголовок : Full
Язык : English
Default : Нет
Forced : Нет
Меню
00:00:00.000 : en:01 Awakening The Beast
00:03:08.188 : en:02 Baby Hawk
00:10:55.071 : en:03 A Great Discovery
00:16:45.087 : en:04 An Understanding
00:20:26.684 : en:05 Making Friends
00:24:20.501 : en:06 Tower Buildingf
00:30:58.732 : en:07 Introducing Gruff
00:34:42.038 : en:08 Fawn's Expertisey
00:38:09.245 : en:09 The Beast's Safety
00:41:13.012 : en:10 The Search Begins
00:44:39.468 : en:11 Transformation
00:49:54.992 : en:12 Learning The Truth
00:53:05.766 : en:13 Fighting The Storm
00:57:07.883 : en:14 Saving Pixie Hollow
01:02:54.688 : en:15 Going Home
01:07:54.612 : en:16 End Credits





Релиз от: Rip by:



   Похожие торренты   Торрент   Размер 
В этой теме нет новых непрочитанных сообщений. Феи: Легенда о чудовище / Legend of the NeverBeast (2014) BDRip 1080p от ExKinoRay | iTunes Russia

347 | 338

7.15 ГБ

В этой теме нет новых непрочитанных сообщений. Феи: Легенда о чудовище / Legend of the NeverBeast (2014) BDRip 1080p | iTunes Russia

342 | 2

9.55 ГБ

В этой теме нет новых непрочитанных сообщений. Феи: Легенда о чудовище / Legend of the NeverBeast (2014) BDRip 720p | iTunes

124 | 4

4.18 ГБ

В этой теме нет новых непрочитанных сообщений. Феи: Легенда о чудовище / Legend of the NeverBeast (2014) BDRip-AVC от ExKinoRay | Чистый звук

424 | 6

744.31 МБ

В этой теме нет новых непрочитанных сообщений. Феи: Легенда о чудовище / Legend of the NeverBeast (2014) BDRip-AVC от ExKinoRay | Чистый звук

7633 | 411

1.73 ГБ

В этой теме нет новых непрочитанных сообщений. Феи: Легенда о чудовище / Legend of the NeverBeast (2014) HDRip | iTunes

1034 | 21

1.37 ГБ

В этой теме нет новых непрочитанных сообщений. Феи: Легенда о чудовище / Tinker Bell and the Legend of the NeverBeast (2014) BDRip-1080p | Чистый звук

1124 | 20

4.58 ГБ




Вы не можете начинать темы
Вы не можете отвечать на сообщения
Вы не можете редактировать свои сообщения
Вы не можете удалять свои сообщения
Вы не можете добавлять вложения

Перейти:  
Для Мосгорсуда, Роскомнадзора и рекламодателей: mosgorsud-torrent[собачка]yandex.ru
 Вход
ppkBB3cker v.2 © 2008-2014 @ PPK
[ Time : 0.024s | 15 Queries | GZIP : Off ]

Торрент трекер RUTOR.IN, Не можете зайти на rutor.org? Какой новый адрес рутор? Какое зеркало рутор? Не работает rutor.org и зеркала? Тогда наш торрент специально для вас. Rutor.in неофициальное зеркало rutor. В случае если у Вас заблокирован rutor или вдруг Вы не можете на него зайти, то Вы без труда сможете скачать бесплатно и без рекламы последние новинки кино, игр, сериалов и прочего у нас, на Rutor.in. Не нужно использовать прокси, чтобы зайти на рутор, достаточно воспользоваться нашим ресурсом. Все новые фильмы, игры, сериалы, книги и музыка за 2013 и 2014 годы через торрент бесплатно. Скачивайте фильмы в хорошем качестве, игры для пк, xbox, playstation без регистрации. У нас вы найдете новые Зарубежные сериалы и Русские сериалы 2013, 2014, 2015 годов. Оставайтесь с нами, качайте любимые фильмы, игры, сериалы, книги и музыку.