img image001 image001 image001 image001 image001 image001 image001 image001 image001 image001 image001 image001 image001 image001 image001

Planets Sun Sun Sun
Статистика раздачи
Автор: Nickolas3434 | Размер: 2.94 ГБ | Добавлен: 13 мар 2015
Раздают: 85    Качают: 8
Скачать торрент
Скачать торрент
Описание торрента

СообщениеДобавлено: 13 мар 2015 

Флинстоуны: борцы каменного века / The Flintstones and WWE: Stone Age Smackdown (2014) BDRip 1080p | P | Чистый звук


Информация о фильме:
Название: Флинстоуны: борцы каменного века
Оригинальное название: The Flintstones and WWE: Stone Age Smackdown
Год выхода: 2015
Жанр: мультфильм
Режиссер: Тони Червоне, Спайк Брандт
В ролях: Джон Сина, Николь Гарсиа, Билл Голдберг, Брианна Гарсиа, СМ Панк, Брайан Даниэльсон, Винс МакМахон
О фильме: Когда Фред теряет отпускные деньги своей семьи, он решает вернуть их с помощью спортивного шоу - рестлинга.

Производство: США / Hanna-Barbera, WWE Studios, Warner Bros
Продолжительность: 00:51:41
Озвучивание: Профессиональное многоголосое (Чистый звук)
Вид субтитров: Вшитые отключаемые
Язык субтитров: Английский (SDH)
Файл:
Формат: MKV
Качество: BDRip
Видео: MPEG-4 AVC/H.264, 1 920x1080 (16:9), 6 283 kbps
Аудио #1: Русский - AC3 / 2.0 / 192 Kbps - Профессиональный многоголосый (Чистый звук)
Аудио #2: Английский - DTS / 5.1 / 1 509 Kbps


General
Unique ID : 203573447576165804513862112204182945079 (0x9926D1E224707F468600A73789BE7D37)
Complete name : C:CREATE264mod1outThe.Flintstones.and.WWE-Stone.Age.Smackdown.2015.BDRip.1080p.RU_Dl-AC3 .EN_DTS.mkv
Format : Matroska
Format version : Version 4 / Version 2
File size : 2.94 GiB
Duration : 51mn 41s
Overall bit rate : 8 146 Kbps
Movie name : The Flintstones and WWE: Stone Age Smackdown (2015)
Encoded date : UTC 2015-03-12 18:19:11
Writing application : mkvmerge v7.7.0 ('Six Voices') 32bit built on Feb 28 2015 23:23:00
Writing library : libebml v1.3.1 + libmatroska v1.4.2
Attachements : cover.jpg
DURATION : 00:51:41.483000000
NUMBER_OF_FRAMES : 290764
NUMBER_OF_BYTES : 585017168
_STATISTICS_WRITING_APP : mkvmerge v7.7.0 ('Six Voices') 32bit built on Feb 28 2015 23:23:00
_STATISTICS_WRITING_DATE_UT : 2015-03-12 18:19:11
_STATISTICS_TAGS : BPS DURATION NUMBER_OF_FRAMES NUMBER_OF_BYTES
Video
ID : 1
Format : AVC
Format/Info : Advanced Video Codec
Format profile : High@L4.1
Format settings, CABAC : Yes
Format settings, ReFrames : 4 frames
Codec ID : V_MPEG4/ISO/AVC
Duration : 51mn 41s
Bit rate : 6 283 Kbps
Width : 1 920 pixels
Height : 1 080 pixels
Display aspect ratio : 16:9
Frame rate mode : Constant
Frame rate : 23.976 fps
Color space : YUV
Chroma subsampling : 4:2:0
Bit depth : 8 bits
Scan type : Progressive
Bits/(Pixel*Frame) : 0.126
Stream size : 2.27 GiB (77%)
Title : The Flintstones and WWE: Stone Age Smackdown (2015)
Writing library : x264 core 144 r2525 40bb568
Encoding settings : cabac=1 / ref=4 / deblock=1:0:1 / analyse=0x3:0x113 / me=umh / subme=11 / psy=1 / psy_rd=0.40:0.05 / mixed_ref=1 / me_range=48 / chroma_me=1 / trellis=2 / 8x8dct=1 / cqm=0 / deadzone=21,11 / fast_pskip=0 / chroma_qp_offset=-3 / threads=12 / lookahead_threads=1 / sliced_threads=0 / nr=0 / decimate=0 / interlaced=0 / bluray_compat=0 / constrained_intra=0 / bframes=5 / b_pyramid=2 / b_adapt=2 / b_bias=0 / direct=1 / weightb=1 / open_gop=0 / weightp=2 / keyint=250 / keyint_min=23 / scenecut=40 / intra_refresh=0 / rc_lookahead=96 / rc=crf / mbtree=1 / crf=16.0 / qcomp=0.60 / qpmin=0 / qpmax=69 / qpstep=4 / vbv_maxrate=62500 / vbv_bufsize=62500 / crf_max=0.0 / nal_hrd=none / filler=0 / ip_ratio=1.40 / aq=3:0.90
Language : English
Default : Yes
Forced : No
Color primaries : BT.709
Transfer characteristics : BT.709
Matrix coefficients : BT.709
Color range : Limited
DURATION : 00:51:41.474000000
NUMBER_OF_FRAMES : 74361
NUMBER_OF_BYTES : 2497677398
_STATISTICS_WRITING_APP : mkvmerge v7.7.0 ('Six Voices') 32bit built on Feb 28 2015 23:23:00
_STATISTICS_WRITING_DATE_UT : 2015-03-12 18:19:11
_STATISTICS_TAGS : BPS DURATION NUMBER_OF_FRAMES NUMBER_OF_BYTES
Audio #1
ID : 2
Format : AC-3
Format/Info : Audio Coding 3
Mode extension : CM (complete main)
Format settings, Endianness : Big
Codec ID : A_AC3
Duration : 51mn 41s
Bit rate mode : Constant
Bit rate : 192 Kbps
Channel(s) : 2 channels
Channel positions : Front: L R
Sampling rate : 44.1 KHz
Bit depth : 16 bits
Compression mode : Lossy
Stream size : 71.0 MiB (2%)
Title : Dub [Line]
Language : Russian
Default : No
Forced : No
Audio #2
ID : 3
Format : DTS
Format/Info : Digital Theater Systems
Mode : 16
Format settings, Endianness : Big
Codec ID : A_DTS
Duration : 51mn 41s
Bit rate mode : Constant
Bit rate : 1 509 Kbps
Channel(s) : 6 channels
Channel positions : Front: L C R, Side: L R, LFE
Sampling rate : 48.0 KHz
Bit depth : 24 bits
Compression mode : Lossy
Stream size : 558 MiB (19%)
Language : English
Default : Yes
Forced : No
Text
ID : 4
Format : UTF-8
Codec ID : S_TEXT/UTF8
Codec ID/Info : UTF-8 Plain Text
Title : SDH
Language : English
Default : Yes
Forced : No
Menu
00:00:00.000 : en:00:00:00.000
00:09:05.211 : en:00:09:05.211
00:19:20.493 : en:00:19:20.493
00:32:55.765 : en:00:32:55.765
00:41:41.124 : en:00:41:41.124
00:49:01.188 : en:00:49:01.188




   Похожие торренты   Торрент   Размер 
В этой теме нет новых непрочитанных сообщений. Флинстоуны: борцы каменного века / The Flintstones and WWE: Stone Age Smackdown (2015) BDRip-AVC от 0ptimus | Чистый звук

107 | 3

890.35 МБ

В этой теме нет новых непрочитанных сообщений. Флинстоуны: борцы каменного века / The Flintstones and WWE: Stone Age Smackdown (2015) HDRip-AVC | P | Чистый звук

349 | 10

955.98 МБ

В этой теме нет новых непрочитанных сообщений. Флинстоуны: борцы каменного века / The Flintstones & WWE: Stone Age Smackdown (2015) HDRip | P | Чистый звук

287 | 17

714.35 МБ

В этой теме нет новых непрочитанных сообщений. Флинстоуны: борцы каменного века / The Flintstones and WWE: Stone Age Smackdown (2015) BDRip 1080p от Leonardo and Scarabey

149 | 18

2.55 ГБ

В этой теме нет новых непрочитанных сообщений. Флинстоуны: Борцы каменного века / The Flintstones and WWE: Stone Age Smackdown (2015) BDRip от HQCLUB

51 | 5

1022.29 МБ

В этой теме нет новых непрочитанных сообщений. Флинстоуны: борцы каменного века / The Flintstones and WWE: Stone Age Smackdown (2015) BDRip 720p от Leonardo and Scarabey

217 | 18

1.12 ГБ

В этой теме нет новых непрочитанных сообщений. Флинстоуны / The Flintstones (1994) BDRip 1080p от MediaClub | P, P2, A

81 | 28

8.38 ГБ




Вы не можете начинать темы
Вы не можете отвечать на сообщения
Вы не можете редактировать свои сообщения
Вы не можете удалять свои сообщения
Вы не можете добавлять вложения

Перейти:  
Для Мосгорсуда, Роскомнадзора и рекламодателей: mosgorsud-torrent[собачка]yandex.ru
 Вход
ppkBB3cker v.2 © 2008-2014 @ PPK
[ Time : 0.020s | 17 Queries | GZIP : On ]

Торрент трекер RUTOR.IN, Не можете зайти на rutor.org? Какой новый адрес рутор? Какое зеркало рутор? Не работает rutor.org и зеркала? Тогда наш торрент специально для вас. Rutor.in неофициальное зеркало rutor. В случае если у Вас заблокирован rutor или вдруг Вы не можете на него зайти, то Вы без труда сможете скачать бесплатно и без рекламы последние новинки кино, игр, сериалов и прочего у нас, на Rutor.in. Не нужно использовать прокси, чтобы зайти на рутор, достаточно воспользоваться нашим ресурсом. Все новые фильмы, игры, сериалы, книги и музыка за 2013 и 2014 годы через торрент бесплатно. Скачивайте фильмы в хорошем качестве, игры для пк, xbox, playstation без регистрации. У нас вы найдете новые Зарубежные сериалы и Русские сериалы 2013, 2014, 2015 годов. Оставайтесь с нами, качайте любимые фильмы, игры, сериалы, книги и музыку.