img image001 image001 image001 image001 image001 image001 image001 image001 image001 image001 image001 image001 image001 image001 image001

Planets Sun Sun Sun
Статистика раздачи
Автор: Nickolas3434 | Размер: 1.28 ГБ | Добавлен: 15 мар 2015
Раздают: 95    Качают: 3
Скачать торрент
Скачать торрент
Описание торрента

СообщениеДобавлено: 15 мар 2015 

Год выпуска: 2014
Страна: США
Жанр: мультфильм, фантастика, комедия, семейный, боевик
Продолжительность: 01:41:53
Перевод: Дублированный
Режиссер: Дон Холл, Крис Уильямс
В ролях: Райан Поттер, Скотт Эдсит, Джейми Чунг, ТиДжей Миллер, Дженесис Родригес, Дэймон Уайанс мл., Майя Рудольф, Джеймс Кромуэлл, Алан Тьюдик, Чарльз Адлер
Описание: Юный Хиро Хамада — прирожденный изобретатель и гений конструирования роботов. Вместе со старшим братом Тадаши они воплощают в жизнь самые передовые идеи в Техническом университете города будущего Сан-Франсокио. После серии загадочных событий друзья оказываются в центре коварного заговора. Отчаявшись, Хиро решает использовать веселого и добродушного экспериментального робота Бэймакса, перепрограммировав его в неуязвимую боевую машину.

Видео кодек: MPEG-4 AVC
Качество: BDRip 720p
Параметры Видео: 1280x544, 23.976 fps; ~1 631 kbps avg
Параметры Звука: 48.0 KHz, AAC, ~165.00 kbps avg, 2ch
Формат: mp4
Релиз:


General
Complete name : E:Gorod_geroev.2014.D.BDRip.720p_KinoGadget.mp4
Format : MPEG-4
Format profile : Base Media
Codec ID : isom
File size : 1.28 GiB
Duration : 1h 41mn
Overall bit rate mode : Variable
Overall bit rate : 1 805 Kbps
Movie name : Город героев
Performer : Дон Холл, Крис Уильямс
Genre : Action, Adventure, Animation
ContentType : Short Film
Recorded date : 2014
Encoded date : UTC 2015-03-14 08:50:22
Tagged date : UTC 2015-03-14 08:55:56
Cover : Yes
ContentRating : mpaa|PG|200|
LongDeion : Юный Хиро Хамада — прирожденный изобретатель и гений конструирования роботов. Вместе со старшим братом Тадаши они воплощают в жизнь самые передовые идеи в Техническом университете города будущего Сан-Франсокио. После серии загадочных событий друзья оказываются в центре коварного заговора. Отчаявшись, Хиро решает использовать веселого и добродушного экспериментального робота Бэймакса, перепрограммировав его в неуязвимую боевую машину.
HDVideo : Yes
Video
ID : 1
Format : AVC
Format/Info : Advanced Video Codec
Format profile : High@L4.1
Format settings, CABAC : Yes
Format settings, ReFrames : 11 frames
Codec ID : avc1
Codec ID/Info : Advanced Video Coding
Duration : 1h 41mn
Bit rate : 1 631 Kbps
Maximum bit rate : 11.0 Mbps
Width : 1 280 pixels
Height : 544 pixels
Display aspect ratio : 2.35:1
Frame rate mode : Constant
Frame rate : 23.976 fps
Color space : YUV
Chroma subsampling : 4:2:0
Bit depth : 8 bits
Scan type : Progressive
Bits/(Pixel*Frame) : 0.098
Stream size : 1.16 GiB (90%)
Writing library : x264 core 142 r2431 ac76440
Encoding settings : cabac=1 / ref=11 / deblock=1:-1:-1 / analyse=0x3:0x133 / me=umh / subme=10 / psy=1 / psy_rd=1.00:0.20 / mixed_ref=1 / me_range=24 / chroma_me=1 / trellis=2 / 8x8dct=1 / cqm=0 / deadzone=21,11 / fast_pskip=1 / chroma_qp_offset=-3 / threads=3 / lookahead_threads=1 / sliced_threads=0 / nr=0 / decimate=1 / interlaced=0 / bluray_compat=0 / constrained_intra=0 / bframes=4 / b_pyramid=2 / b_adapt=2 / b_bias=0 / direct=3 / weightb=1 / open_gop=0 / weightp=2 / keyint=240 / keyint_min=23 / scenecut=40 / intra_refresh=0 / rc_lookahead=60 / rc=crf / mbtree=1 / crf=21.0 / qcomp=0.60 / qpmin=0 / qpmax=69 / qpstep=4 / ip_ratio=1.40 / aq=1:1.50
Encoded date : UTC 2015-03-14 08:42:49
Tagged date : UTC 2015-03-14 08:51:08
Audio
ID : 2
Format : AAC
Format/Info : Advanced Audio Codec
Format profile : LC
Codec ID : 40
Duration : 1h 41mn
Duration_FirstFrame : 64ms
Bit rate mode : Variable
Bit rate : 165 Kbps
Maximum bit rate : 262 Kbps
Channel count : 2 channels
Channel positions : Front: L R
Sampling rate : 48.0 KHz
Compression mode : Lossy
Stream size : 120 MiB (9%)
Language : Russian
Tagged date : UTC 2015-03-14 08:51:08





   Похожие торренты   Торрент   Размер 
В этой теме нет новых непрочитанных сообщений. Город героев / Big Hero 6 (2014) BDRip 720p | iTunes, A

119 | 5

3.76 ГБ

В этой теме нет новых непрочитанных сообщений. Город героев / Big Hero 6 (2014) BDRip 720p | iTunes Russia

86 | 5

7.93 ГБ

В этой теме нет новых непрочитанных сообщений. Город героев / Big Hero 6 (2014) BDRip 720p | Чистый звук

1703 | 39

3.37 ГБ

В этой теме нет новых непрочитанных сообщений. Город героев / Big Hero 6 (2014) BDRip 720p | iTunes Russia

554 | 6

3.93 ГБ

В этой теме нет новых непрочитанных сообщений. Город героев / Big Hero 6 (2014) BDRip 720p от HQCLUB | Лицензия

2162 | 113

4.83 ГБ

В этой теме нет новых непрочитанных сообщений. Город героев / Big Hero 6 (2014) BDRip 720p от HELLYWOOD | Лицензия

649 | 28

4.01 ГБ

В этой теме нет новых непрочитанных сообщений. Город героев / Big Hero 6 (2014) BDRip 720p от Leonardo and Scarabey | iTunes

909 | 25

2.44 ГБ




Вы не можете начинать темы
Вы не можете отвечать на сообщения
Вы не можете редактировать свои сообщения
Вы не можете удалять свои сообщения
Вы не можете добавлять вложения

Перейти:  
Для Мосгорсуда, Роскомнадзора и рекламодателей: mosgorsud-torrent[собачка]yandex.ru
 Вход
ppkBB3cker v.2 © 2008-2014 @ PPK
[ Time : 0.030s | 17 Queries | GZIP : Off ]

Торрент трекер RUTOR.IN, Не можете зайти на rutor.org? Какой новый адрес рутор? Какое зеркало рутор? Не работает rutor.org и зеркала? Тогда наш торрент специально для вас. Rutor.in неофициальное зеркало rutor. В случае если у Вас заблокирован rutor или вдруг Вы не можете на него зайти, то Вы без труда сможете скачать бесплатно и без рекламы последние новинки кино, игр, сериалов и прочего у нас, на Rutor.in. Не нужно использовать прокси, чтобы зайти на рутор, достаточно воспользоваться нашим ресурсом. Все новые фильмы, игры, сериалы, книги и музыка за 2013 и 2014 годы через торрент бесплатно. Скачивайте фильмы в хорошем качестве, игры для пк, xbox, playstation без регистрации. У нас вы найдете новые Зарубежные сериалы и Русские сериалы 2013, 2014, 2015 годов. Оставайтесь с нами, качайте любимые фильмы, игры, сериалы, книги и музыку.
cron