img image001 image001 image001 image001 image001 image001 image001 image001 image001 image001 image001 image001 image001 image001 image001

Planets Sun Sun Sun
Статистика раздачи
Автор: Nickolas3434 | Размер: 5.62 ГБ | Добавлен: 19 мар 2015
Раздают: 176    Качают: 12
Скачать торрент
Скачать торрент
Описание торрента

СообщениеДобавлено: 19 мар 2015 

Информация о фильме
Название: Город героев
Оригинальное название: Big Hero 6
Год выпуска: 2014
Жанр: Мультфильм, фантастика, комедия, полнометражный
Выпущено: США, Walt Disney Animation Studios, Walt Disney Pictures
Режиссер: Дон Холл, Крис Уильямс
В ролях: Райан Поттер, Скотт Эдсит, Джейми Чунг, ТиДжей Миллер, Дженесис Родригес, Дэймон Уайанс мл., Майя Рудольф, Джеймс Кромуэлл, Алан Тьюдик, Чарльз Адлер
О фильме: Юный Хиро Хамада — прирожденный изобретатель и гений конструирования роботов. Вместе со старшим братом Тадаши они воплощают в жизнь самые передовые идеи в Техническом университете города будущего Сан-Франсокио. После серии загадочных событий друзья оказываются в центре коварного заговора. Отчаявшись, Хиро решает использовать веселого и добродушного экспериментального робота Бэймакса, перепрограммировав его в неуязвимую боевую машину.
Качество: BDRip (by Ash61)
Контейнер: MKV
Формат 3D: Half OverUnder / Вертикальная анаморфная стереопара
Порядок ракурсов: левый ракурс первый
Файл
Качество: BDRip (1080p)
Видео: MPEG-4 AVC, 6.1 Мбит/с, 1920x1080
Аудио: Русский, английский (AC3, 6 ch, 640 Кбит/с), украинский (AC3, 6 ch, 384 Кбит/с)
Размер: 5.62 ГБ
Продолжительность: 01:41:53
Перевод: Дублированный [лицензия]
Субтитры: Русские, английские, украинские
Общее
Уникальный идентификатор : 231261377466342192936834354702438674228 (0xADFB523921D1E2EC98D2795F0B28AF34)
Полное имя : C:BigHero6(2014)3D-halfOU.mkv
Формат : Matroska
Версия формата : Version 4 / Version 2
Размер файла : 5,62 Гбайт
Продолжительность : 1 ч. 41 м.
Общий поток : 7900 Кбит/сек
Дата кодирования : UTC 2015-03-17 10:48:05
Программа кодирования : mkvmerge v7.3.0 ('Nouages') 64bit built on Oct 22 2014 18:53:34
Библиотека кодирования : libebml v1.3.0 + libmatroska v1.4.1
DURATION : 01:39:32.515000000
NUMBER_OF_FRAMES : 1325
NUMBER_OF_BYTES : 36124
_STATISTICS_WRITING_APP : mkvmerge v7.3.0 ('Nouages') 64bit built on Oct 22 2014 18:53:34
_STATISTICS_WRITING_DATE_UTC : 2015-03-17 10:48:05
_STATISTICS_TAGS : BPS DURATION NUMBER_OF_FRAMES NUMBER_OF_BYTES
Видео
Идентификатор : 1
Формат : AVC
Формат/Информация : Advanced Video Codec
Профиль формата : High@L4.1
Параметр CABAC формата : Да
Параметр ReFrames формата : 4 кадра
Идентификатор кодека : V_MPEG4/ISO/AVC
Продолжительность : 1 ч. 41 м.
Битрейт : 6079 Кбит/сек
Ширина : 1920 пикселей
Высота : 1080 пикселей
Соотношение сторон : 16:9
Режим частоты кадров : Постоянный
Частота кадров : 23,976 кадра/сек
Цветовое пространство : YUV
Субдискретизация насыщенности : 4:2:0
Битовая глубина : 8 бит
Тип развёртки : Прогрессивная
Бит/(Пиксели*Кадры) : 0.122
Размер потока : 4,33 Гбайт (77%)
Библиотека кодирования : x264 core 138 r2358 9e941d1
Настройки программы : cabac=1 / ref=4 / deblock=1:-3:-3 / analyse=0x3:0x113 / me=umh / subme=10 / psy=1 / psy_rd=1.00:0.00 / mixed_ref=1 / me_range=32 / chroma_me=1 / trellis=2 / 8x8dct=1 / cqm=0 / deadzone=21,11 / fast_pskip=1 / chroma_qp_offset=-2 / threads=12 / lookahead_threads=3 / sliced_threads=0 / nr=0 / decimate=1 / interlaced=0 / bluray_compat=0 / constrained_intra=0 / bframes=10 / b_pyramid=2 / b_adapt=2 / b_bias=0 / direct=3 / weightb=1 / open_gop=0 / weightp=2 / keyint=250 / keyint_min=23 / scenecut=40 / intra_refresh=0 / rc_lookahead=60 / rc=crf / mbtree=1 / crf=17.0 / qcomp=0.70 / qpmin=0 / qpmax=69 / qpstep=4 / vbv_maxrate=40000 / vbv_bufsize=30000 / crf_max=0.0 / nal_hrd=none / frame-packing=4 / ip_ratio=1.40 / aq=1:0.70
Язык : English
Default : Да
Forced : Нет
DURATION : 01:41:52.690000000
NUMBER_OF_FRAMES : 146558
NUMBER_OF_BYTES : 4763158855
_STATISTICS_WRITING_APP : mkvmerge v7.3.0 ('Nouages') 64bit built on Oct 22 2014 18:53:34
_STATISTICS_WRITING_DATE_UTC : 2015-03-17 10:48:05
_STATISTICS_TAGS : BPS DURATION NUMBER_OF_FRAMES NUMBER_OF_BYTES
Аудио #1
Идентификатор : 2
Формат : AC-3
Формат/Информация : Audio Coding 3
Расширение режима : CM (complete main)
Параметр Endianness формата : Big
Идентификатор кодека : A_AC3
Продолжительность : 1 ч. 41 м.
Вид битрейта : Постоянный
Битрейт : 640 Кбит/сек
Каналы : 6 каналов
Расположение каналов : Front: L C R, Side: L R, LFE
Частота : 48,0 КГц
Битовая глубина : 16 бит
Метод сжатия : С потерями
Размер потока : 466 Мбайт (8%)
Заголовок : AC3 5.1 @ 640 kbps - DUB, Blu-ray CEE
Язык : Russian
Default : Да
Forced : Нет
Аудио #2
Идентификатор : 3
Формат : AC-3
Формат/Информация : Audio Coding 3
Расширение режима : CM (complete main)
Параметр Endianness формата : Big
Идентификатор кодека : A_AC3
Продолжительность : 1 ч. 41 м.
Вид битрейта : Постоянный
Битрейт : 384 Кбит/сек
Каналы : 6 каналов
Расположение каналов : Front: L C R, Side: L R, LFE
Частота : 48,0 КГц
Битовая глубина : 16 бит
Метод сжатия : С потерями
Размер потока : 280 Мбайт (5%)
Заголовок : AC3 5.1 @ 384 kbps - DUB, iTunes
Язык : Ukrainian
Default : Нет
Forced : Нет
Аудио #3
Идентификатор : 4
Формат : AC-3
Формат/Информация : Audio Coding 3
Расширение режима : CM (complete main)
Параметр Endianness формата : Big
Идентификатор кодека : A_AC3
Продолжительность : 1 ч. 41 м.
Вид битрейта : Постоянный
Битрейт : 640 Кбит/сек
Каналы : 6 каналов
Расположение каналов : Front: L C R, Side: L R, LFE
Частота : 48,0 КГц
Битовая глубина : 16 бит
Метод сжатия : С потерями
Размер потока : 466 Мбайт (8%)
Заголовок : Original - BD 3D
Язык : English
Default : Нет
Forced : Нет
Текст #1
Идентификатор : 5
Формат : UTF-8
Идентификатор кодека : S_TEXT/UTF8
Идентификатор кодека/Информация : UTF-8 Plain Text
Язык : Russian
Default : Нет
Forced : Нет
Текст #2
Идентификатор : 6
Формат : UTF-8
Идентификатор кодека : S_TEXT/UTF8
Идентификатор кодека/Информация : UTF-8 Plain Text
Заголовок : Forced
Язык : Ukrainian
Default : Нет
Forced : Нет
Текст #3
Идентификатор : 7
Формат : UTF-8
Идентификатор кодека : S_TEXT/UTF8
Идентификатор кодека/Информация : UTF-8 Plain Text
Язык : Ukrainian
Default : Нет
Forced : Нет
Текст #4
Идентификатор : 8
Формат : UTF-8
Идентификатор кодека : S_TEXT/UTF8
Идентификатор кодека/Информация : UTF-8 Plain Text
Язык : English
Default : Нет
Forced : Нет
Меню
00:00:00.000 : en: 1. Hustle
00:07:15.685 : en: 2. Nerd School
00:14:37.835 : en: 3. Showcase
00:21:49.183 : en: 4. Tragedy
00:24:32.888 : en: 5. A New Friend
00:29:34.731 : en: 6. Being Helpful
00:36:58.091 : en: 7. Upgrade
00:44:18.322 : en: 8. The Chase
00:50:49.088 : en: 9. Fred's House
00:54:33.020 : en:10. Training
01:00:44.140 : en:11. Secret Lair
01:07:12.612 : en:12. Big Reveal
01:11:54.644 : en:13. Putting It All Together
01:16:26.665 : en:14. Saving The Day!
01:24:44.162 : en:15. The Portal
01:31:52.757 : en:16. End Credits






   Похожие торренты   Торрент   Размер 
В этой теме нет новых непрочитанных сообщений. Город героев / Big Hero 6 (2014) BDRip 1080p от Ash61 | 3D-Video | halfOU | iTunes

196 | 15

5.62 ГБ

В этой теме нет новых непрочитанных сообщений. Город героев / Big Hero 6 (2014) BDRip 1080p от Ash61 | 3D-Video | halfOU | iTunes

659 | 59

5.17 ГБ

В этой теме нет новых непрочитанных сообщений. Город героев / Big Hero 6 (2014) BDRip 1080p | 3D-Video | HSBS | Лицензия

417 | 40

8.34 ГБ

В этой теме нет новых непрочитанных сообщений. Город героев / Big Hero 6 (2014) BDRip от HQ-ViDEO | D, A

1043 | 66

2.18 ГБ

В этой теме нет новых непрочитанных сообщений. Город героев / Big Hero 6 (2014) BDRip | Лицензия

312 | 15

1.42 ГБ

В этой теме нет новых непрочитанных сообщений. Город героев / Big Hero 6 (2014) BDRip 1080p by ZHz | 60 FPS

307 | 11

6.66 ГБ

В этой теме нет новых непрочитанных сообщений. Город героев / Big Hero 6 (2014) BDRip 1080p

698 | 31

5.77 ГБ




Вы не можете начинать темы
Вы не можете отвечать на сообщения
Вы не можете редактировать свои сообщения
Вы не можете удалять свои сообщения
Вы не можете добавлять вложения

Перейти:  
Для Мосгорсуда, Роскомнадзора и рекламодателей: mosgorsud-torrent[собачка]yandex.ru
 Вход
ppkBB3cker v.2 © 2008-2014 @ PPK
[ Time : 0.031s | 15 Queries | GZIP : Off ]

Торрент трекер RUTOR.IN, Не можете зайти на rutor.org? Какой новый адрес рутор? Какое зеркало рутор? Не работает rutor.org и зеркала? Тогда наш торрент специально для вас. Rutor.in неофициальное зеркало rutor. В случае если у Вас заблокирован rutor или вдруг Вы не можете на него зайти, то Вы без труда сможете скачать бесплатно и без рекламы последние новинки кино, игр, сериалов и прочего у нас, на Rutor.in. Не нужно использовать прокси, чтобы зайти на рутор, достаточно воспользоваться нашим ресурсом. Все новые фильмы, игры, сериалы, книги и музыка за 2013 и 2014 годы через торрент бесплатно. Скачивайте фильмы в хорошем качестве, игры для пк, xbox, playstation без регистрации. У нас вы найдете новые Зарубежные сериалы и Русские сериалы 2013, 2014, 2015 годов. Оставайтесь с нами, качайте любимые фильмы, игры, сериалы, книги и музыку.