img image001 image001 image001 image001 image001 image001 image001 image001 image001 image001 image001 image001 image001 image001 image001

Planets Sun Sun Sun
Статистика раздачи
Автор: Nickolas3434 | Размер: 5.77 ГБ | Добавлен: 19 мар 2015
Раздают: 698    Качают: 31
Скачать торрент
Скачать торрент
Описание торрента

СообщениеДобавлено: 19 мар 2015 

Информация о фильме
Название: Город героев
Оригинальное название: Big Hero 6
Год выхода: 2014
Жанр: мультфильм, фантастика, комедия, семейный, боевик
Режиссер: Дон Холл, Крис Уильямс
В ролях: Райан Поттер, Скотт Эдсит, Дэниэл Хенни, ТиДжей Миллер, Джейми Чанг, Дэймон Уайанс мл., Дженезис Родригез, Джеймс Кромуэлл, Алан Тьюдик, Майя Рудольф
О фильме:
Юный Хиро Хамада — прирожденный изобретатель и гений конструирования роботов. Вместе со старшим братом Тадаши они воплощают в жизнь самые передовые идеи в Техническом университете города будущего Сан-Франсокио. После серии загадочных событий друзья оказываются в центре коварного заговора. Отчаявшись, Хиро решает использовать веселого и добродушного экспериментального робота Бэймакса, перепрограммировав его в неуязвимую боевую машину.

Выпущено: США
Продолжительность: 01:41:52
Перевод: Дублированный + Оригинал
Файл
Кодек: x264
Качество: BDRip 1080p
Видео: 1920x804, 6824 Kbps, 23.976 fps
Аудио #1: AC-3, 6 ch, 640 kbps (Rus)
Аудио #2: AC-3, 6 ch, 640 kbps (Eng)
Субтитры: русские (полные, форсированные), английские
x264 [info]: frame I:1188 Avg QP:14.74 size:241818
x264 [info]: frame P:35399 Avg QP:18.13 size: 71495
x264 [info]: frame B:109971 Avg QP:19.53 size: 21789

Общее
Уникальный идентификатор : 204017460647630198965211594224626556995 (0x997C556AFF83F75A83128E213D17E043)
Полное имя : Город героев.2014.BDRip.1080p.Rus.Eng.mkv
Формат : Matroska
Версия формата : Version 2
Размер файла : 5,77 Гбайт
Продолжительность : 1 ч. 41 м.
Общий поток : 8107 Кбит/сек
Название фильма : Город героев.2014
Дата кодирования : UTC 2015-03-18 17:23:06
Программа кодирования : mkvmerge v5.8.0 ('No Sleep / Pillow') built on Sep 2 2012 15:37:04
Библиотека кодирования : libebml v1.2.3 + libmatroska v1.3.0
Attachements : Cover.png
Видео
Идентификатор : 1
Формат : AVC
Формат/Информация : Advanced Video Codec
Профиль формата : High@L4.1
Параметр CABAC формата : Да
Параметр ReFrames формата : 5 кадров
Идентификатор кодека : V_MPEG4/ISO/AVC
Продолжительность : 1 ч. 41 м.
Битрейт : 6824 Кбит/сек
Ширина : 1920 пикселей
Высота : 804 пикселя
Соотношение сторон : 2,40:1
Режим частоты кадров : Постоянный
Частота кадров : 23,976 кадра/сек
Цветовое пространство : YUV
Субдискретизация насыщенности : 4:2:0
Битовая глубина : 8 бит
Тип развёртки : Прогрессивная
Бит/(Пиксели*Кадры) : 0.184
Размер потока : 4,74 Гбайт (82%)
Заголовок : Rip by Boriy
Библиотека кодирования : x264 core 146 r2538 121396c
Настройки программы : cabac=1 / ref=5 / deblock=1:-3:-3 / analyse=0x3:0x113 / me=umh / subme=11 / psy=1 / psy_rd=1.00:0.00 / mixed_ref=1 / me_range=32 / chroma_me=1 / trellis=2 / 8x8dct=1 / cqm=0 / deadzone=21,11 / fast_pskip=0 / chroma_qp_offset=-2 / threads=12 / lookahead_threads=2 / sliced_threads=0 / nr=0 / decimate=0 / interlaced=0 / bluray_compat=0 / constrained_intra=0 / bframes=9 / b_pyramid=2 / b_adapt=2 / b_bias=0 / direct=3 / weightb=1 / open_gop=0 / weightp=2 / keyint=240 / keyint_min=23 / scenecut=40 / intra_refresh=0 / rc=2pass / mbtree=0 / bitrate=6824 / ratetol=1.0 / qcomp=0.60 / qpmin=0 / qpmax=69 / qpstep=4 / cplxblur=20.0 / qblur=0.5 / ip_ratio=1.40 / pb_ratio=1.30 / aq=1:0.80
Язык : English
Default : Да
Forced : Нет
Аудио #1
Идентификатор : 2
Формат : AC-3
Формат/Информация : Audio Coding 3
Расширение режима : CM (complete main)
Параметр Endianness формата : Big
Идентификатор кодека : A_AC3
Продолжительность : 1 ч. 41 м.
Вид битрейта : Постоянный
Битрейт : 640 Кбит/сек
Каналы : 6 каналов
Расположение каналов : Front: L C R, Side: L R, LFE
Частота : 48,0 КГц
Битовая глубина : 16 бит
Метод сжатия : С потерями
Размер потока : 466 Мбайт (8%)
Заголовок : Дубляж
Язык : Russian
Default : Да
Forced : Нет
Аудио #2
Идентификатор : 3
Формат : AC-3
Формат/Информация : Audio Coding 3
Расширение режима : CM (complete main)
Параметр Endianness формата : Big
Идентификатор кодека : A_AC3
Продолжительность : 1 ч. 41 м.
Вид битрейта : Постоянный
Битрейт : 640 Кбит/сек
Каналы : 6 каналов
Расположение каналов : Front: L C R, Side: L R, LFE
Частота : 48,0 КГц
Битовая глубина : 16 бит
Метод сжатия : С потерями
Размер потока : 466 Мбайт (8%)
Заголовок : Оригинал
Язык : English
Default : Нет
Forced : Нет
Текст #1
Идентификатор : 4
Формат : UTF-8
Идентификатор кодека : S_TEXT/UTF8
Идентификатор кодека/Информация : UTF-8 Plain Text
Заголовок : Forced
Язык : Russian
Default : Да
Forced : Да
Текст #2
Идентификатор : 5
Формат : UTF-8
Идентификатор кодека : S_TEXT/UTF8
Идентификатор кодека/Информация : UTF-8 Plain Text
Заголовок : Full
Язык : Russian
Default : Нет
Forced : Нет
Текст #3
Идентификатор : 6
Формат : UTF-8
Идентификатор кодека : S_TEXT/UTF8
Идентификатор кодека/Информация : UTF-8 Plain Text
Заголовок : Full
Язык : English
Default : Нет
Forced : Нет
Меню
00:00:00.000 : :1. Hustle
00:07:15.685 : :2. Nerd School
00:14:37.835 : :3. Showcase
00:21:49.182 : :4. Tragedy
00:24:32.888 : :5. A New Friend
00:29:34.731 : :6. Being Helpful
00:36:58.090 : :7. Upgrade
00:44:18.322 : :8. The Chase
00:50:49.087 : :9. Fred's House
00:54:33.019 : :10. Training
01:00:44.140 : :11. Secret Lair
01:07:12.611 : :12. Big Reveal
01:11:54.643 : :13. Putting It All Together
01:16:26.665 : :14. Saving The Day!
01:24:44.162 : :15. The Portal
01:31:52.757 : :16. End Credits



   Похожие торренты   Торрент   Размер 
В этой теме нет новых непрочитанных сообщений. Город героев / Big Hero 6 (2014) BDRip 1080p by ZHz | 60 FPS

307 | 11

6.66 ГБ

В этой теме нет новых непрочитанных сообщений. Город героев / Big Hero 6 (2014) BDRip 1080p от NNNB

112 | 6

8.02 ГБ

В этой теме нет новых непрочитанных сообщений. Город героев / Big Hero 6 (2014) BDRip 1080p | D, А | iTunes Russia

474 | 11

8.3 ГБ

В этой теме нет новых непрочитанных сообщений. Город героев / Big Hero 6 (2014) BDRip 1080p | Чистый звук

3724 | 125

4.98 ГБ

В этой теме нет новых непрочитанных сообщений. Город героев / Big Hero 6 (2014) BDRip 1080p | D, А | iTunes Russia

215 | 19

11.52 ГБ

В этой теме нет новых непрочитанных сообщений. Город героев / Big Hero 6 (2014) BDRip 1080p | 3D-Video | HSBS | Лицензия

417 | 40

8.34 ГБ

В этой теме нет новых непрочитанных сообщений. Город героев / Big Hero 6 (2014) BDRip 1080p | 3D-Video | halfOU | Лицензия

176 | 12

5.62 ГБ




Вы не можете начинать темы
Вы не можете отвечать на сообщения
Вы не можете редактировать свои сообщения
Вы не можете удалять свои сообщения
Вы не можете добавлять вложения

Перейти:  
Для Мосгорсуда, Роскомнадзора и рекламодателей: mosgorsud-torrent[собачка]yandex.ru
 Вход
ppkBB3cker v.2 © 2008-2014 @ PPK
[ Time : 0.055s | 16 Queries | GZIP : Off ]

Торрент трекер RUTOR.IN, Не можете зайти на rutor.org? Какой новый адрес рутор? Какое зеркало рутор? Не работает rutor.org и зеркала? Тогда наш торрент специально для вас. Rutor.in неофициальное зеркало rutor. В случае если у Вас заблокирован rutor или вдруг Вы не можете на него зайти, то Вы без труда сможете скачать бесплатно и без рекламы последние новинки кино, игр, сериалов и прочего у нас, на Rutor.in. Не нужно использовать прокси, чтобы зайти на рутор, достаточно воспользоваться нашим ресурсом. Все новые фильмы, игры, сериалы, книги и музыка за 2013 и 2014 годы через торрент бесплатно. Скачивайте фильмы в хорошем качестве, игры для пк, xbox, playstation без регистрации. У нас вы найдете новые Зарубежные сериалы и Русские сериалы 2013, 2014, 2015 годов. Оставайтесь с нами, качайте любимые фильмы, игры, сериалы, книги и музыку.