img image001 image001 image001 image001 image001 image001 image001 image001 image001 image001 image001 image001 image001 image001 image001

Planets Sun Sun Sun
Статистика раздачи
Автор: Nickolas3434 | Размер: 784.62 МБ | Добавлен: 21 мар 2015
Раздают: 139    Качают: 67
Скачать торрент
Скачать торрент
Описание торрента

СообщениеДобавлено: 21 мар 2015 

Информация о фильме
Название: Трансформеры: Скрытые роботы / Трансформеры: роботы в маскировке (1 сезон, 1 серия из 26)
Оригинальное название: Transformers: Robots in Disguise
Год выхода: 2015
Жанр: боевик, комедия, приключения
Режиссер: Дэвид Хартман, Скутер Тидвелл
В ролях: Уилл Фридел, Даррен Крисс, Констанс Зиммер, Хари Пэйтон, Митчелл Уитфилд, Стюарт Аллан, Тед МакГинли, Питер Каллен, Трой Бэйкер, Лайам О’Брайэн
О фильме: Бамблби вызывают, чтобы спасти Землю от новой группы десептиконов, сбежавших из рухнувшего на планету корабля-тюрьмы. Автобот собирает группу неопытных воинов, включающих в себя бунтующего «плохиша», кадета элитной гвардии, напыщенного динобота и гиперактивного миникона. Вместе отряд пытается поймать новых врагов.
Продолжительность: 1 х ~00:23:00
Перевод: Любительский (многоголосый закадровый)
Субтитры: отсутствуют
Файл
Формат: MKV
Качество: WEB-DL
Видео: 1280 x 720 (16:9) at 23.976 fps, AVC (x264), High@L3.1, 4205 kbps avg, 0.190 bit/pixel
Аудио# 1 русский: 48 kHz, AC3 Dolby Digital, 3/2 (L,C,R,l,r) + LFE ch, ~384 kbps | MVO, LE-Production |
Аудио# 2 английский: 48 kHz, AC3 Dolby Digital, 3/2 (L,C,R,l,r) + LFE ch, ~384 kbps | Оригинал |
Озвучено студией: LE-Production | Семпл
Перевод на русский: Тимиркан Сиюхов
Роли озвучивали: Тимиркан Сиюхов, Маргарита Щелкунова и Михаил Глушенков
Релиз от:
01 - Pilot. Part.1
Общее
Полное имя : Transformers.Robots.in.Disguise.2015.720p.WEB-DL.DD5.1.le-productionTransformers.Robots.in.Disguise.2015.S01E01.Pilot.Part.1.720p.WEB-DL.DD5.1.le-production.mkv
Формат : Matroska
Размер файла : 785 Мбайт
Продолжительность : 22 м.
Общий поток : 4974 Кбит/сек
Название фильма : LE-Production
Дата кодирования : UTC 2015-03-19 18:20:12
Программа кодирования : mkvmerge v7.3.0 ('Nouages') 64bit built on Oct 22 2014 18:53:34
Библиотека кодирования : libebml v1.3.0 + libmatroska v1.4.1
Видео
Идентификатор : 1
Формат : AVC
Формат/Информация : Advanced Video Codec
Профиль формата : High@L3.1
Параметр CABAC формата : Да
Параметр ReFrames формата : 4 кадры
Параметры GOP формата : M=4, N=24
Идентификатор кодека : V_MPEG4/ISO/AVC
Продолжительность : 22 м.
Битрейт : 4205 Кбит/сек
Ширина : 1280 пикс.
Высота : 720 пикс.
Соотношение сторон : 16:9
Частота кадров : 23,976 кадр/сек
Цветовое пространство : YUV
Подвыборка цветности : 4:2:0
Битовая глубина : 8 бит
Тип развёртки : Прогрессивная
Бит/(Пиксели*Кадры) : 0.190
Размер потока : 648 Мбайт (83%)
Заголовок : LE-Production
Библиотека кодирования : x264 core 130 r2273 b3065e6
Настройки программы : cabac=1 / ref=1 / deblock=1:-1:-1 / analyse=0x3:0x3 / me=dia / subme=1 / psy=1 / psy_rd=1.00:0.10 / mixed_ref=0 / me_range=16 / chroma_me=1 / trellis=0 / 8x8dct=1 / cqm=0 / deadzone=21,11 / fast_pskip=1 / chroma_qp_offset=0 / threads=12 / lookahead_threads=2 / sliced_threads=0 / nr=0 / decimate=1 / interlaced=0 / bluray_compat=0 / constrained_intra=0 / bframes=3 / b_pyramid=2 / b_adapt=1 / b_bias=0 / direct=3 / weightb=1 / open_gop=0 / weightp=1 / keyint=250 / keyint_min=23 / scenecut=40 / intra_refresh=0 / rc=2pass / mbtree=0 / bitrate=4205 / ratetol=1.0 / qcomp=0.60 / qpmin=0 / qpmax=69 / qpstep=4 / cplxblur=20.0 / qblur=0.5 / ip_ratio=1.40 / pb_ratio=1.30 / aq=1:1.00
Язык : Russian
Аудио #1
Идентификатор : 2
Формат : AC-3
Формат/Информация : Audio Coding 3
Расширение режима : CM (complete main)
Идентификатор кодека : A_AC3
Продолжительность : 22 м.
Вид битрейта : Постоянный
Битрейт : 384 Кбит/сек
Канал(ы) : 6 канала(ов)
Расположение каналов : Front: L C R, Side: L R, LFE
Частота : 48,0 КГц
Битовая глубина : 16 бит
Метод сжатия : С потерями
Размер потока : 60,6 Мбайт (8%)
Заголовок : LE-Production
Язык : Russian
Аудио #2
Идентификатор : 3
Формат : AC-3
Формат/Информация : Audio Coding 3
Расширение режима : CM (complete main)
Идентификатор кодека : A_AC3
Продолжительность : 22 м.
Вид битрейта : Постоянный
Битрейт : 384 Кбит/сек
Канал(ы) : 6 канала(ов)
Расположение каналов : Front: L C R, Side: L R, LFE
Частота : 48,0 КГц
Битовая глубина : 16 бит
Метод сжатия : С потерями
Размер потока : 60,6 Мбайт (8%)
Язык : English





   Похожие торренты   Торрент   Размер 
В этой теме нет новых непрочитанных сообщений. Трансформеры: Скрытые роботы / Трансформеры: Роботы в маскировке / Transformers: Robots in Disguise [01x01-02] (2015) WEB-DL 720p | L, L1

130 | 81

1.56 ГБ

В этой теме нет новых непрочитанных сообщений. Трансформеры: Скрытые роботы / Трансформеры: Роботы в маскировке / Transformers: Robots in Disguise [01x01-02] (2015) WEB-DL 1080p | L, L1

151 | 18

1.91 ГБ

В этой теме нет новых непрочитанных сообщений. Трансформеры: Скрытые роботы / Трансформеры: Роботы в маскировке / Transformers: Robots in Disguise [01x01-02] (2015) WEB-DLRip | L

269 | 16

567.39 МБ

В этой теме нет новых непрочитанных сообщений. Трансформеры: Скрытые роботы / Трансформеры: роботы в маскировке (1 сезон, 26 из 26) / Transformers: Robots in Disguise (Дэвид Хартман, Скутер Тидвелл) [2015, боевик, комедия, приключения, WEB-DL 720p] MVO, DUB

232 | 79

18.41 ГБ

В этой теме нет новых непрочитанных сообщений. Трансформеры: Скрытые роботы / Transformers: Robots in Disguise [01x01 из XX] (2015) WEB-DL 720p | L, L1

12 | 5

821.99 МБ

В этой теме нет новых непрочитанных сообщений. Трансформеры: Скрытые роботы / Transformers: Robots in Disguise [01x01 из XX] (2015) WEB-DL 1080p | L, L1

78 | 10

985.4 МБ

В этой теме нет новых непрочитанных сообщений. Трансформеры: Скрытые роботы / Transformers: Robots in Disguise [01x01 из XX] (2015) WEB-DLRip | L

70 | 7

283.8 МБ




Вы не можете начинать темы
Вы не можете отвечать на сообщения
Вы не можете редактировать свои сообщения
Вы не можете удалять свои сообщения
Вы не можете добавлять вложения

Перейти:  
Для Мосгорсуда, Роскомнадзора и рекламодателей: mosgorsud-torrent[собачка]yandex.ru
 Вход
ppkBB3cker v.2 © 2008-2014 @ PPK
[ Time : 0.091s | 18 Queries | GZIP : Off ]

Торрент трекер RUTOR.IN, Не можете зайти на rutor.org? Какой новый адрес рутор? Какое зеркало рутор? Не работает rutor.org и зеркала? Тогда наш торрент специально для вас. Rutor.in неофициальное зеркало rutor. В случае если у Вас заблокирован rutor или вдруг Вы не можете на него зайти, то Вы без труда сможете скачать бесплатно и без рекламы последние новинки кино, игр, сериалов и прочего у нас, на Rutor.in. Не нужно использовать прокси, чтобы зайти на рутор, достаточно воспользоваться нашим ресурсом. Все новые фильмы, игры, сериалы, книги и музыка за 2013 и 2014 годы через торрент бесплатно. Скачивайте фильмы в хорошем качестве, игры для пк, xbox, playstation без регистрации. У нас вы найдете новые Зарубежные сериалы и Русские сериалы 2013, 2014, 2015 годов. Оставайтесь с нами, качайте любимые фильмы, игры, сериалы, книги и музыку.