img image001 image001 image001 image001 image001 image001 image001 image001 image001 image001 image001 image001 image001 image001 image001

Planets Sun Sun Sun
Статистика раздачи
Автор: Nickolas3434 | Размер: 4.62 ГБ | Добавлен: 23 мар 2015
Раздают: 934    Качают: 407
Скачать торрент
Скачать торрент
Описание торрента

СообщениеДобавлено: 23 мар 2015 

Гадкий я / Despicable Me (2010) BDRip 720p
Релиз от HQ-ViDEO

Информация о фильме
Название: Гадкий я
Оригинальное название: Despicable Me
Год выхода: 2010
Жанр: мультфильм, комедия, семейный
Режиссер: Пьер Коффен /Pierre Coffin/, Крис Рено /Chris Renaud/
В ролях: Стив Карелл /Steve Carell/, Джейсон Сигел /Jason Segel/, Расселл Брэнд /Russell Brand/, Джули Эндрюс /Julie Andrews/, Уилл Арнетт /Will Arnett/, Кристен Уиг /Kristen Wiig/, Миранда Косгров /Miranda Cosgrove/, Дэна Гайер /Dana Gaier/, Элси Фишер /Elsie Fisher/, Пьер Коффен /Pierre Coffin/, ...
О фильме:
Гадкий снаружи, но добрый внутри Грю намерен, тем не менее, закрепить за собой статус главного архизлодея в мире, для чего он решает выкрасть Луну при помощи созданной им армии миньонов. Дело осложняют конкуренты, вставляющие высокотехнические палки в колеса, и семейные обстоятельства в виде трех сироток, о которых Грю вынужден заботиться.

Страна: США
Продолжительность: 01:34:48
Перевод: Русский дублированный перевод (Лицензия) + Оригинальная, английская дорожка + Украинский дублированный перевод (Лицензия) (Отдельно)
Файл
Кодек: MKV, H.264
Качество: BDRip 720p
Видео: 5566 kbps; 0.262 bit/pixel; 1280 x 692; 1.85:1; 23.976 fps
Звук №1: AC3 Dolby Digital; 448.00 kbps, 6 Ch - RUS DUB
Звук №2: AC3 Dolby Digital; 448.00 kbps, 6 Ch - English
Звук №3: AC3 Dolby Digital; 384.00 kbps, 6 Ch - UKR DUB (Отдельно)
Субтитры: Русские (полные, форсированные), Английские.
Размер: 4.37 GB (DVD5)
General
Complete name : Gadkiy.Ya.2010.DUAL.BDRip.720p.h264.AC3.-HQ-ViDEO.mkv
Format : Matroska
File size : 4.37 GiB
Duration : 1h 34mn
Overall bit rate : 6 593 Kbps
Movie name : Despicable Me (2010)
Encoded date : UTC 2010-12-24 07:00:28
Writing application : mkvmerge v3.3.0 ('Language') built on Mar 24 2010 14:59:24
Writing library : libebml v0.8.0 + libmatroska v0.9.0
Video
ID : 1
Format : AVC
Format/Info : Advanced Video Codec
Format profile : High@L4.1
Format settings, CABAC : Yes
Format settings, ReFrames : 6 frames
Muxing mode : Container profile=Unknown@4.1
Codec ID : V_MPEG4/ISO/AVC
Duration : 1h 34mn
Bit rate : 5 566 Kbps
Width : 1 280 pixels
Height : 692 pixels
Display aspect ratio : 1.850
Frame rate : 23.976 fps
Resolution : 8 bits
Colorimetry : 4:2:0
Scan type : Progressive
Bits/(Pixel*Frame) : 0.262
Stream size : 3.68 GiB (84%)
Title : Encoded by GYN
Audio #1
ID : 2
Format : AC-3
Format/Info : Audio Coding 3
Codec ID : A_AC3
Duration : 1h 34mn
Bit rate mode : Constant
Bit rate : 448 Kbps
Channel(s) : 6 channels
Channel positions : Front: L C R, Surround: L R, LFE
Sampling rate : 48.0 KHz
Stream size : 304 MiB (7%)
Title : DUB
Language : Russian
Audio #2
ID : 3
Format : AC-3
Format/Info : Audio Coding 3
Codec ID : A_AC3
Duration : 1h 34mn
Bit rate mode : Constant
Bit rate : 448 Kbps
Channel(s) : 6 channels
Channel positions : Front: L C R, Surround: L R, LFE
Sampling rate : 48.0 KHz
Stream size : 304 MiB (7%)
Title : Original
Language : English
Text #1
ID : 4
Format : UTF-8
Codec ID : S_TEXT/UTF8
Codec ID/Info : UTF-8 Plain Text
Title : Forced
Language : Russian
Text #2
ID : 5
Format : UTF-8
Codec ID : S_TEXT/UTF8
Codec ID/Info : UTF-8 Plain Text
Language : Russian
Text #3
ID : 6
Format : UTF-8
Codec ID : S_TEXT/UTF8
Codec ID/Info : UTF-8 Plain Text
Language : English



Релиз от: HQ-ViDEO
Автор рипа: GYN



   Похожие торренты   Торрент   Размер 
В этой теме нет новых непрочитанных сообщений. Гадкий я / Despicable Me (2010) BDRip 720p от leonardo 59 & Scarabey | Лицензия

938 | 42

2.59 ГБ

В этой теме нет новых непрочитанных сообщений. Гадкий Я / Despicable Me (2010) BDRip от HQ-ViDEO

6279 | 225

1.46 ГБ

В этой теме нет новых непрочитанных сообщений. Гадкий я 2 / Despicable Me 2 (2013) BDRip 720p от HQ-ViDEO | + 3 Мини-мультфильма

868 | 138

5.69 ГБ

В этой теме нет новых непрочитанных сообщений. Гадкий я / Despicable Me (2010) BDRip-AVC от leonardo 59 & Scarabey | Лицензия

2079 | 87

1.56 ГБ

В этой теме нет новых непрочитанных сообщений. Гадкий я / Despicable Me (2010) BDRip 720p

33 | 5

4.62 ГБ

В этой теме нет новых непрочитанных сообщений. Гадкий я / Despicable Me (2010) BDRip 720p от DHT-Movies

80 | 6

2.28 ГБ

В этой теме нет новых непрочитанных сообщений. Гадкий Я / Despicable Me (2010) BDRip 720p от Filmrus

45 | 6

7.24 ГБ




Вы не можете начинать темы
Вы не можете отвечать на сообщения
Вы не можете редактировать свои сообщения
Вы не можете удалять свои сообщения
Вы не можете добавлять вложения

Перейти:  
Для Мосгорсуда, Роскомнадзора и рекламодателей: mosgorsud-torrent[собачка]yandex.ru
 Вход
ppkBB3cker v.2 © 2008-2014 @ PPK
[ Time : 0.036s | 15 Queries | GZIP : Off ]

Торрент трекер RUTOR.IN, Не можете зайти на rutor.org? Какой новый адрес рутор? Какое зеркало рутор? Не работает rutor.org и зеркала? Тогда наш торрент специально для вас. Rutor.in неофициальное зеркало rutor. В случае если у Вас заблокирован rutor или вдруг Вы не можете на него зайти, то Вы без труда сможете скачать бесплатно и без рекламы последние новинки кино, игр, сериалов и прочего у нас, на Rutor.in. Не нужно использовать прокси, чтобы зайти на рутор, достаточно воспользоваться нашим ресурсом. Все новые фильмы, игры, сериалы, книги и музыка за 2013 и 2014 годы через торрент бесплатно. Скачивайте фильмы в хорошем качестве, игры для пк, xbox, playstation без регистрации. У нас вы найдете новые Зарубежные сериалы и Русские сериалы 2013, 2014, 2015 годов. Оставайтесь с нами, качайте любимые фильмы, игры, сериалы, книги и музыку.
cron