img image001 image001 image001 image001 image001 image001 image001 image001 image001 image001 image001 image001 image001 image001 image001

Planets Sun Sun Sun
Статистика раздачи
Автор: Nickolas3434 | Размер: 4.34 ГБ | Добавлен: 25 мар 2015
Раздают: 406    Качают: 48
Скачать торрент
Скачать торрент
Описание торрента

СообщениеДобавлено: 25 мар 2015 

Название : Феи: Коллекция
Оригинальное название: Tinker Bell: Collection
Год выхода: 2008, 2009, 2010, 2012, 2014, 2014 г.,
Жанр: Мультфильм, фэнтези, приключения, семейный
Продолжительность: 01:17:58 | 01:20:14 | 01:16:27 | 01:15:03 | 01:18:05 | 01:16:14

#77

Информация о фильме
Название : Феи
Оригинальное название: Tinker Bell
Год выхода : 2008
Жанр : Мультфильм, фэнтези, приключения, семейный
Режиссер : Брэдли Рэймонд
Роли озвучивали : Мэй Уитман, Кристин Ченоуэт, Люси Лью, Америка Феррера, Джейн Хоррокс, Джесси МакКартни, Джефф Беннетт, Роб Полсен

Описание : Добро пожаловать в волшебный мир, населенный очаровательными обитательницами Долины Фей. Это чудесное место, наполненное мифами, магией и волшебством. Долина Фей — это целое королевство, каждый житель которого обладает своим, необыкновенным талантом, а все вместе феи выполняют очень важную работу — они заботятся о природе и помогают временам года сменять друг друга: помогают листьям менять цвет, солнечным лучам — растапливать снег, зверям, оставшимся на зимнюю спячку — выбираться из своих нор и берлог.
Фея Динь-Динь считает, что ее талант по починке кастрюль и чайников, не так важен, как умения других фей. Но когда Динь-Динь решает заняться чем-то другим, из этого не получается ничего, кроме всеобщего замешательства! С помощью своих подруг она понимает, что главное в жизни — быть честной с самой собой, и тогда-то и родится подлинная магия.
Страна : США
Производство : DisneyToon Studios, Prana Studios
Продолжительность : 01:17:58
Перевод : Профессиональный (полное дублирование)
Автор рипа и релиза :
Файл
Формат видео : AVI
Качество : BDRip (Исходник - Blu-ray Disc)
Видео : XVID, 720x400 (16:9), 23.976 fps, 1230 Kbps
Аудио : Русский, MP3, 128 Кбит/с, 48.0 Hz, 2 ch



General
Complete name : E:/Torrent_2/Tinker Bell. Collection [2008-2014, XviD BDRip, RUS] [Stranik 2.0]/Tinker Bell [2008, XviD BDRip, RUS] [Stranik 2.0].avi
Format : AVI
Format/Info : Audio Video Interleave
File size : 762 MiB
Duration : 1h 17mn
Overall bit rate : 1 367 Kbps
Writing application : VirtualDubMod 1.5.10.3 (build 2550/release)
Writing library : VirtualDubMod build 2550/release
Video #0
ID : 0
Format : MPEG-4 Visual
Format profile : Advanced Simple@L5
Format settings, BVOP : 2
Format settings, QPel : No
Format settings, GMC : No warppoints
Format settings, Matrix : Default (H.263)
Codec ID : XVID
Codec ID/Hint : XviD
Duration : 1h 17mn
Bit rate : 1 230 Kbps
Width : 720 pixels
Height : 400 pixels
Display aspect ratio : 16:9
Frame rate : 23.976 fps
Color space : YUV
Chroma subsampling : 4:2:0
Bit depth : 8 bits
Scan type : Progressive
Compression mode : Lossy
Bits/(Pixel*Frame) : 0.178
Stream size : 686 MiB (90%)
Writing library : XviD 1.2.1 (UTC 2008-12-04)
Audio #1
ID : 1
Format : MPEG Audio
Format version : Version 1
Format profile : Layer 3
Mode : Joint stereo
Codec ID : 55
Codec ID/Hint : MP3
Duration : 1h 17mn
Bit rate mode : Constant
Bit rate : 128 Kbps
Channel(s) : 2 channels
Sampling rate : 48.0 KHz
Compression mode : Lossy
Stream size : 71.4 MiB (9%)
Alignment : Aligned on interleaves
Interleave, duration : 42 ms (1.00 video frame)
Interleave, preload duration : 504 ms
Writing library : LAME3.98.2

#77

Информация о фильме
Название : Феи: Потерянное сокровище
Оригинальное название: Tinker Bell and the Lost Treasure
Год выхода : 2009
Жанр : Мультфильм, фэнтези, приключения, семейный
Режиссер : Клэй Холл
Роли озвучивали : Кристин Ченоуэт, Люси Лью, Джесси МакКартни, Мэй Уитман, Памела Адлон, Анджелика Хьюстон, Рэйвен, Джейн Хоррокс, Грэй ДеЛисл, Джон Ди Маджио

Описание : Продолжение приключений феи мастерицы Динь-Динь и ее друзей. Необходимо омолодить Дерево Фейской Пыльцы. Выбирают фею Динь — лучшего из мастеров, она должна изготовить Скипетр, важнейшая часть которого — Лунный Камень. В ходе работы над Скипетром Лунный Камень был разрушен. Динь-Динь очень хочет исправить ошибку. Она отправляется на север Нетляндии в поисках Волшебного Зеркала, которое может исполнить ее желание
Страна : США
Производство : DisneyToon Studios, Prana Studios
Продолжительность : 01:20:14
Перевод : Профессиональный (полное дублирование)
Автор рипа и релиза :
Файл
Формат видео : AVI
Качество : BDRip (Исходник - Blu-ray Disc)
Видео : XVID, 720x400 (16:9), 23.976 fps, 1192 Kbps
Аудио : Русский, MP3, 128 Кбит/с, 48.0 Hz, 2 ch



General
Complete name : E:/Torrent_2/Tinker Bell. Collection [2008-2014, XviD BDRip, RUS] [Stranik 2.0]/Tinker Bell and the Lost Treasure [2009, XviD BDRip, RUS] [Stranik 2.0].avi
Format : AVI
Format/Info : Audio Video Interleave
File size : 763 MiB
Duration : 1h 20mn
Overall bit rate : 1 330 Kbps
Writing application : VirtualDubMod 1.5.10.3 (build 2550/release)
Writing library : VirtualDubMod build 2550/release
Video #0
ID : 0
Format : MPEG-4 Visual
Format profile : Advanced Simple@L5
Format settings, BVOP : 2
Format settings, QPel : No
Format settings, GMC : No warppoints
Format settings, Matrix : Default (H.263)
Codec ID : XVID
Codec ID/Hint : XviD
Duration : 1h 20mn
Bit rate : 1 192 Kbps
Width : 720 pixels
Height : 400 pixels
Display aspect ratio : 16:9
Frame rate : 23.976 fps
Color space : YUV
Chroma subsampling : 4:2:0
Bit depth : 8 bits
Scan type : Progressive
Compression mode : Lossy
Bits/(Pixel*Frame) : 0.173
Stream size : 684 MiB (90%)
Writing library : XviD 1.2.1 (UTC 2008-12-04)
Audio #1
ID : 1
Format : MPEG Audio
Format version : Version 1
Format profile : Layer 3
Mode : Joint stereo
Mode extension : MS Stereo
Codec ID : 55
Codec ID/Hint : MP3
Duration : 1h 20mn
Bit rate mode : Constant
Bit rate : 128 Kbps
Channel(s) : 2 channels
Sampling rate : 48.0 KHz
Compression mode : Lossy
Stream size : 73.5 MiB (10%)
Alignment : Aligned on interleaves
Interleave, duration : 42 ms (1.00 video frame)
Interleave, preload duration : 504 ms
Writing library : LAME3.98.2

#77

Информация о фильме
Название : Феи: Волшебное спасение
Оригинальное название: Tinker Bell and the Great Fairy Rescue
Год выхода : 2010
Жанр : Мультфильм, фэнтези, приключения, семейный
Режиссер : Брэдли Рэймонд
Роли озвучивали : Майкл Шин, Мэй Уитман, Кристин Ченоуэт, Люси Лью, Памела Адлон, Рэйвен, Джесси МакКартни, Джефф Беннетт, Роб Полсен, Фэйт Принс

Описание : Однажды Фея Динь-Динь встретила Лизи, маленькую девочку с твердой верой в волшебство. У Динь-Динь возникает привязанность к любопытной девочке, которой так нужен друг. Ради нее она идет на огромный риск, подвергая опасности свою жизнь и будущее всей страны Фей.
Страна : США
Производство : DisneyToon Studios, Prana Studios
Продолжительность : 01:16:27
Перевод : Профессиональный (полное дублирование)
Автор рипа и релиза :
Файл
Формат видео : AVI
Качество : BDRip (Исходник - Blu-ray Disc)
Видео : XVID, 720x400 (16:9), 23.976 fps, 1203 Kbps
Аудио : Русский, MP3, 128 Кбит/с, 48.0 Hz, 2 ch



General
Complete name : E:/Torrent_2/Tinker Bell. Collection [2008-2014, XviD BDRip, RUS] [Stranik 2.0]/Tinker Bell and the Great Fairy Rescue [2010, XviD BDRip, RUS] [Stranik 2.0].avi
Format : AVI
Format/Info : Audio Video Interleave
File size : 733 MiB
Duration : 1h 16mn
Overall bit rate : 1 340 Kbps
Writing application : VirtualDubMod 1.5.10.3 (build 2550/release)
Writing library : VirtualDubMod build 2550/release
Video #0
ID : 0
Format : MPEG-4 Visual
Format profile : Advanced Simple@L5
Format settings, BVOP : 2
Format settings, QPel : No
Format settings, GMC : No warppoints
Format settings, Matrix : Default (H.263)
Codec ID : XVID
Codec ID/Hint : XviD
Duration : 1h 16mn
Bit rate : 1 203 Kbps
Width : 720 pixels
Height : 400 pixels
Display aspect ratio : 16:9
Frame rate : 23.976 fps
Color space : YUV
Chroma subsampling : 4:2:0
Bit depth : 8 bits
Scan type : Progressive
Compression mode : Lossy
Bits/(Pixel*Frame) : 0.174
Stream size : 658 MiB (90%)
Writing library : XviD 1.2.1 (UTC 2008-12-04)
Audio #1
ID : 1
Format : MPEG Audio
Format version : Version 1
Format profile : Layer 3
Mode : Joint stereo
Mode extension : MS Stereo
Codec ID : 55
Codec ID/Hint : MP3
Duration : 1h 16mn
Bit rate mode : Constant
Bit rate : 128 Kbps
Channel(s) : 2 channels
Sampling rate : 48.0 KHz
Compression mode : Lossy
Stream size : 70.0 MiB (10%)
Alignment : Aligned on interleaves
Interleave, duration : 42 ms (1.00 video frame)
Interleave, preload duration : 504 ms

#77

Информация о фильме
Название : Феи: Тайна зимнего леса
Оригинальное название: Tinker Bell and the Secret of the Wings
Год выхода : 2012
Жанр : Мультфильм, фэнтези, приключения, семейный
Режиссер : Роберт Винс
Роли озвучивали : Тимоти Далтон, Люси Хейл, Меган Хилти, Анжелика Хьюстон, Мэтт Лантер, Джесси МакКартни, Мэй Уитман, Люси Лью, Рэйвен, Дебби Райан...

Описание : Динь-Динь и ее подруги всегда боялись пересекать границу с Зимним лесом, ведь существует поверье, что там очень опасно. В один прекрасный день Динь-Динь, сгорая от любопытства, подходит вплотную к лесу, и ее крылья неожиданно начинают блестеть и переливаться. Завороженная Динь, желая узнать тайну волшебных крыльев, кутается в теплое пальто и отправляется в глубь таинственного леса, где ее ждет неожиданное открытие…
Страна : США
Производство : DisneyToon Studios, Prana Studios
Продолжительность : 01:15:03
Перевод : Профессиональный (полное дублирование)
Автор рипа и релиза :
Файл
Формат видео : AVI
Качество : BDRip (Исходник - Blu-ray Disc)
Видео : XVID, 720x400 (16:9), 23.976 fps, 1218 Kbps
Аудио : Русский, MP3, 128 Кбит/с, 48.0 Hz, 2 ch



General
Complete name : E:/Torrent_2/Tinker Bell. Collection [2008-2014, XviD BDRip, RUS] [Stranik 2.0]/Tinker Bell and the Secret of the Wings [2012, XviD BDRip, RUS] [Stranik 2.0].avi
Format : AVI
Format/Info : Audio Video Interleave
File size : 728 MiB
Duration : 1h 15mn
Overall bit rate : 1 355 Kbps
Writing application : VirtualDubMod 1.5.10.3 (build 2550/release)
Writing library : VirtualDubMod build 2550/release
Video #0
ID : 0
Format : MPEG-4 Visual
Format profile : Advanced Simple@L5
Format settings, BVOP : 2
Format settings, QPel : No
Format settings, GMC : No warppoints
Format settings, Matrix : Default (H.263)
Codec ID : XVID
Codec ID/Hint : XviD
Duration : 1h 15mn
Bit rate : 1 218 Kbps
Width : 720 pixels
Height : 400 pixels
Display aspect ratio : 16:9
Frame rate : 23.976 fps
Color space : YUV
Chroma subsampling : 4:2:0
Bit depth : 8 bits
Scan type : Progressive
Compression mode : Lossy
Bits/(Pixel*Frame) : 0.176
Stream size : 654 MiB (90%)
Writing library : XviD 1.2.1 (UTC 2008-12-04)
Audio #1
ID : 1
Format : MPEG Audio
Format version : Version 1
Format profile : Layer 3
Mode : Joint stereo
Mode extension : MS Stereo
Codec ID : 55
Codec ID/Hint : MP3
Duration : 1h 15mn
Bit rate mode : Constant
Bit rate : 128 Kbps
Channel(s) : 2 channels
Sampling rate : 48.0 KHz
Compression mode : Lossy
Stream size : 68.7 MiB (9%)
Alignment : Aligned on interleaves
Interleave, duration : 42 ms (1.00 video frame)
Interleave, preload duration : 504 ms
Writing library : LAME3.98.2

#77

Информация о фильме
Название : Феи: Загадка пиратского острова
Оригинальное название: Tinker Bell and the Pirate Fairy
Год выхода : 2014
Жанр : Мультфильм, фэнтези, приключения, семейный
Режиссер : Пегги Холмс
Роли озвучивали : Кристина Хендрикс, Мэй Уитман, Том Хиддлстон, Памела Адлон, Анджела Бартис, Меган Хилти, Люси Лью, Рэйвен, Джим Каммингс, Кевин Майкл Ричардсон

Описание : История о Зарине, смышленой и амбициозной фее, собирающей пыльцу растений. Все начинается с того, что она похищает волшебную пыльцу фей…
Страна : США
Производство : DisneyToon Studios, Prana Studios
Продолжительность : 01:18:05
Перевод : Профессиональный (полное дублирование)
Автор рипа и релиза :
Файл
Формат видео : AVI
Качество : BDRip (Исходник - Blu-ray Disc)
Видео : XVID, 720x400 (16:9), 23.976 fps, 1167 Kbps
Аудио : Русский, MP3, 128 Кбит/с, 48.0 Hz, 2 ch



General
Complete name : E:/Torrent_2/Tinker Bell. Collection [2008-2014, XviD BDRip, RUS] [Stranik 2.0]/Tinker Bell and the Pirate Fairy [2014, XviD BDRip, RUS] [Stranik 2.0].avi
Format : AVI
Format/Info : Audio Video Interleave
File size : 728 MiB
Duration : 1h 18mn
Overall bit rate : 1 304 Kbps
Writing application : VirtualDubMod 1.5.10.3 (build 2550/release)
Writing library : VirtualDubMod build 2550/release
Video #0
ID : 0
Format : MPEG-4 Visual
Format profile : Advanced Simple@L5
Format settings, BVOP : 2
Format settings, QPel : No
Format settings, GMC : No warppoints
Format settings, Matrix : Default (H.263)
Codec ID : XVID
Codec ID/Hint : XviD
Duration : 1h 18mn
Bit rate : 1 167 Kbps
Width : 720 pixels
Height : 400 pixels
Display aspect ratio : 16:9
Frame rate : 23.976 fps
Color space : YUV
Chroma subsampling : 4:2:0
Bit depth : 8 bits
Scan type : Progressive
Compression mode : Lossy
Bits/(Pixel*Frame) : 0.169
Stream size : 652 MiB (89%)
Writing library : XviD 1.2.1 (UTC 2008-12-04)
Audio #1
ID : 1
Format : MPEG Audio
Format version : Version 1
Format profile : Layer 3
Mode : Joint stereo
Mode extension : MS Stereo
Codec ID : 55
Codec ID/Hint : MP3
Duration : 1h 18mn
Bit rate mode : Constant
Bit rate : 128 Kbps
Channel(s) : 2 channels
Sampling rate : 48.0 KHz
Compression mode : Lossy
Stream size : 71.5 MiB (10%)
Alignment : Aligned on interleaves
Interleave, duration : 42 ms (1.00 video frame)
Interleave, preload duration : 504 ms
Writing library : LAME3.98.2

#77

Информация о фильме
Название : Феи: Легенда о чудовище
Оригинальное название: Tinker Bell and the Legend of the NeverBeast
Год выхода : 2014
Жанр : Мультфильм, фэнтези, приключения, семейный
Режиссер : Стив Лотер
Роли озвучивали : Мэй Уитман, Джиннифер Гудвин, Розарио Доусон, Люси Лью, Томас Леннон, Рэйвен, Памела Адлон, Меган Хилти, Мелани Браун

Описание : Анимационная сказка расскажет удивительную историю о веселой и талантливой фее Фауне, которая убеждена в том, что о книге нельзя судить по ее обложке, впрочем, как и о животном по его клыкам, поэтому она дружит с таинственным существом громадных размеров из Нетландии по прозвищу Чудовище.
В это время группа волшебных фей разведки не настолько уверены в этом страшном звере и намереваются захватить его прежде, чем он уничтожит их дома. Они хотят отправиться на поиски Чудовища. Фауна, чтобы спасти своего нового друга, остается лишь доказать всем, что он — существо доброе и не собирается вредить другим…
Страна : США
Производство : DisneyToon Studios, Prana Studios
Продолжительность : 01:16:14
Перевод : Профессиональный (полное дублирование)
Автор рипа и релиза :
Файл
Формат видео : AVI
Качество : BDRip (Исходник - Blu-ray Disc)
Видео : XVID, 720x400 (16:9), 23.976 fps, 1199 Kbps
Аудио : Русский, MP3, 128 Кбит/с, 48.0 Hz, 2 ch



General
Complete name : E:/Torrent_2/Tinker Bell. Collection [2008-2014, XviD BDRip, RUS] [Stranik 2.0]/Tinker Bell and the Legend of the NeverBeast [2014, XviD BDRip, RUS] [Stranik 2.0].avi
Format : AVI
Format/Info : Audio Video Interleave
File size : 729 MiB
Duration : 1h 16mn
Overall bit rate : 1 337 Kbps
Writing application : VirtualDubMod 1.5.10.3 (build 2550/release)
Writing library : VirtualDubMod build 2550/release
Video #0
ID : 0
Format : MPEG-4 Visual
Format profile : Advanced Simple@L5
Format settings, BVOP : 2
Format settings, QPel : No
Format settings, GMC : No warppoints
Format settings, Matrix : Default (H.263)
Codec ID : XVID
Codec ID/Hint : XviD
Duration : 1h 16mn
Bit rate : 1 199 Kbps
Width : 720 pixels
Height : 400 pixels
Display aspect ratio : 16:9
Frame rate : 23.976 fps
Color space : YUV
Chroma subsampling : 4:2:0
Bit depth : 8 bits
Scan type : Progressive
Compression mode : Lossy
Bits/(Pixel*Frame) : 0.174
Stream size : 654 MiB (90%)
Writing library : XviD 1.2.1 (UTC 2008-12-04)
Audio #1
ID : 1
Format : MPEG Audio
Format version : Version 1
Format profile : Layer 3
Mode : Joint stereo
Mode extension : MS Stereo
Codec ID : 55
Codec ID/Hint : MP3
Duration : 1h 16mn
Bit rate mode : Constant
Bit rate : 128 Kbps
Channel(s) : 2 channels
Sampling rate : 48.0 KHz
Compression mode : Lossy
Stream size : 69.8 MiB (10%)
Alignment : Aligned on interleaves
Interleave, duration : 42 ms (1.00 video frame)
Interleave, preload duration : 504 ms
Writing library : LAME3.98.2ЄЄЄЄЄЄЄЄЄЄ

Моя максимальная скорость отдачи 100КБ/c





   Похожие торренты   Торрент   Размер 
В этой теме нет новых непрочитанных сообщений. Феи: Коллекция / Tinker Bell: Collection (2008-2014) BDRip 720p

295 | 96

15.93 ГБ

В этой теме нет новых непрочитанных сообщений. Феи: Коллекция / Tinker Bell: Collection (2008-2014) BDRip | Лицензия

484 | 104

8.66 ГБ

В этой теме нет новых непрочитанных сообщений. Феи: Коллекция / Tinker Bell: Collection (2008-2014) BDRip | Лицензия

85 | 30

8.71 ГБ

В этой теме нет новых непрочитанных сообщений. Феи. Коллекция / Tinker Bell. Collection (2008-2014) BDRip 1080p от MediaClub | D

90 | 52

36.94 ГБ

В этой теме нет новых непрочитанных сообщений. Феи: Легенда о чудовище / Tinker Bell and the Legend of the NeverBeast (2014) BDRip от Stranik 2.0 | Чистый звук

334 | 18

701.72 МБ

В этой теме нет новых непрочитанных сообщений. Феи / Tinker Bell (2008) BDRip от HQ-ViDEO

1141 | 49

1.46 ГБ

В этой теме нет новых непрочитанных сообщений. Феи / Tinker Bell (2008) BDRip 1080p

98 | 2

4.37 ГБ




Вы не можете начинать темы
Вы не можете отвечать на сообщения
Вы не можете редактировать свои сообщения
Вы не можете удалять свои сообщения
Вы не можете добавлять вложения

Перейти:  
Для Мосгорсуда, Роскомнадзора и рекламодателей: mosgorsud-torrent[собачка]yandex.ru
 Вход
ppkBB3cker v.2 © 2008-2014 @ PPK
[ Time : 0.054s | 15 Queries | GZIP : On ]

Торрент трекер RUTOR.IN, Не можете зайти на rutor.org? Какой новый адрес рутор? Какое зеркало рутор? Не работает rutor.org и зеркала? Тогда наш торрент специально для вас. Rutor.in неофициальное зеркало rutor. В случае если у Вас заблокирован rutor или вдруг Вы не можете на него зайти, то Вы без труда сможете скачать бесплатно и без рекламы последние новинки кино, игр, сериалов и прочего у нас, на Rutor.in. Не нужно использовать прокси, чтобы зайти на рутор, достаточно воспользоваться нашим ресурсом. Все новые фильмы, игры, сериалы, книги и музыка за 2013 и 2014 годы через торрент бесплатно. Скачивайте фильмы в хорошем качестве, игры для пк, xbox, playstation без регистрации. У нас вы найдете новые Зарубежные сериалы и Русские сериалы 2013, 2014, 2015 годов. Оставайтесь с нами, качайте любимые фильмы, игры, сериалы, книги и музыку.