img image001 image001 image001 image001 image001 image001 image001 image001 image001 image001 image001 image001 image001 image001 image001

Planets Sun Sun Sun
Статистика раздачи
Автор: Nickolas3434 | Размер: 985.4 МБ | Добавлен: 25 мар 2015
Раздают: 78    Качают: 10
Скачать торрент
Скачать торрент
Описание торрента

СообщениеДобавлено: 25 мар 2015 

Информация о фильме:
● Название: Трансформеры: Скрытые роботы
● Оригинальное название: Transformers: Robots in Disguise
● Год выхода: 2015
● Жанр: мультфильм, боевик, комедия, приключения
● Режиссер: Дэвид Хартман, Скутер Тидвелл
● В ролях: Уилл Фридел, Даррен Крисс, Констанс Зиммер, Хари Пэйтон, Митчелл Уитфилд, Стюарт Аллан, Тед МакГинли, Питер Каллен, Трой Бэйкер, Лайам О’Брайэн

Описание фильма:
Бамблби вызывают, чтобы спасти Землю от новой группы десептиконов, сбежавших из рухнувшего на планету корабля-тюрьмы. Автобот собирает группу неопытных воинов, включающих в себя бунтующего «плохиша», кадета элитной гвардии, напыщенного динобота и гиперактивного миникона. Вместе отряд пытается поймать новых врагов.
● Страна: США
● Студия: Darby Pop Productions; Hasbro Studios
● Продолжительность: 00:22:03 серия
● Перевод: любительский многоголосный, любительский одноголосный

Информация о файле:
● Кодек: MPEG-4 AVC
● Формат: MKV
● Качество: WEB-DL
● Видео: ~5028 kbps, 1920x1080, 23.976 fps
● Аудио# 1 Rus: AC3, 48 kHz, 2 ch, 192 kbps (MVO Le-production)
● Аудио# 2 Rus: AC3, 48 kHz, 2 ch, 192 kbps (VO Azazel)
● Аудио# 3 Rus: AC3, 48 kHz, 2 ch, 192 kbps (VO DuBDraG Project)
● Аудио# 4 Eng: AC3, 48 kHz, 6 ch, 384 kbps
● Аудио# 5 Eng: AAC, 48 kHz, 2 ch, ~175 kbps
● Субтитры: Русские, английские

Семпл
Релиз от: &
s01e01. Pilot. Part 1
Общее
Уникальный идентификатор: 197579812763614544063630381448269079494 (0x94A47CDF339F31C0957074AE3CAF23C6)
Полное имя: D:MR_TransformersTransformers_Robots in Disguise. s01. 2015. mkv. WEB-DL (1920x1080)s01e01. Pilot. Part 1.mkv
Формат: Matroska
Версия формата: Version 4 / Version 2
Размер файла: 955 Мбайт
Продолжительность: 22 м.
Общий поток: 6054 Кбит/сек
Название фильма: s01e01. Pilot. Part 1
Дата кодирования: UTC 2015-03-21 15:33:55
Программа кодирования: mkvmerge v6.9.1 ('Blue Panther') 64bit built on Apr 18 2014 18:23:38
Библиотека кодирования: libebml v1.3.0 + libmatroska v1.4.1
Видео
Идентификатор: 1
Формат: AVC
Формат/Информация: Advanced Video Codec
Профиль формата: High @ L4.0
Параметр CABAC формата: Да
Параметр ReFrames формата: 4 кадра
Идентификатор кодека: V_MPEG4/ISO/AVC
Продолжительность: 22 м.
Битрейт: 5028 Кбит/сек
Ширина: 1920 пикселей
Высота: 1080 пикселей
Соотношение сторон: 16:9
Режим частоты кадров: Постоянный
Частота кадров: 23,976 кадра/сек
Цветовое пространство: YUV
Субдискретизация насыщенности: 4:2:0
Битовая глубина: 8 бит
Тип развёртки: Прогрессивная
Бит/(Пиксели*Кадры): 0.101
Размер потока: 793 Мбайт (98%)
Заголовок: H.264
Язык: English
Default: Да
Forced: Нет
Основные цвета: BT.709
Характеристики трансфера: BT.709
Коэффициенты матрицы: BT.709
colour_range: Limited
Аудио #1
Идентификатор: 2
Формат: AC-3
Формат/Информация: Audio Coding 3
Расширение режима: CM (complete main)
Параметр Endianness формата: Big
Идентификатор кодека: A_AC3
Продолжительность: 22 м.
Вид битрейта: Постоянный
Битрейт: 192 Кбит/сек
Каналы: 2 канала
Расположение каналов: Front: L R
Частота: 48,0 КГц
Битовая глубина: 16 бит
Метод сжатия: С потерями
Размер потока: 30,3 Мбайт (3%)
Заголовок: MVO_Le-production
Язык: Russian
Default: Да
Forced: Нет
Аудио #2
Идентификатор: 3
Формат: AC-3
Формат/Информация: Audio Coding 3
Расширение режима: CM (complete main)
Параметр Endianness формата: Big
Идентификатор кодека: A_AC3
Продолжительность: 22 м.
Вид битрейта: Постоянный
Битрейт: 192 Кбит/сек
Каналы: 2 канала
Расположение каналов: Front: L R
Частота: 48,0 КГц
Битовая глубина: 16 бит
Метод сжатия: С потерями
Размер потока: 30,3 Мбайт (3%)
Заголовок: VO_Azazel
Язык: Russian
Default: Нет
Forced: Нет
Аудио #3
Идентификатор: 4
Формат: AC-3
Формат/Информация: Audio Coding 3
Расширение режима: CM (complete main)
Параметр Endianness формата: Big
Идентификатор кодека: A_AC3
Продолжительность: 22 м.
Вид битрейта: Постоянный
Битрейт: 192 Кбит/сек
Каналы: 2 канала
Расположение каналов: Front: L R
Частота: 48,0 КГц
Битовая глубина: 16 бит
Метод сжатия: С потерями
Размер потока: 30,3 Мбайт (3%)
Заголовок: VO_DuBDraG Project
Язык: Russian
Default: Нет
Forced: Нет
Аудио #4
Идентификатор: 5
Формат: AC-3
Формат/Информация: Audio Coding 3
Расширение режима: CM (complete main)
Параметр Endianness формата: Big
Идентификатор кодека: A_AC3
Продолжительность: 22 м.
Вид битрейта: Постоянный
Битрейт: 384 Кбит/сек
Каналы: 6 каналов
Расположение каналов: Front: L C R, Side: L R, LFE
Частота: 48,0 КГц
Битовая глубина: 16 бит
Метод сжатия: С потерями
Размер потока: 60,6 Мбайт (6%)
Заголовок: DD5.1
Язык: English
Default: Нет
Forced: Нет
Аудио #5
Идентификатор: 6
Формат: AAC
Формат/Информация: Advanced Audio Codec
Профиль формата: LC
Идентификатор кодека: A_AAC
Продолжительность: 22 м.
Каналы: 2 канала
Расположение каналов: Front: L R
Частота: 48,0 КГц
Метод сжатия: С потерями
Заголовок: AAC2.0
Язык: English
Default: Нет
Forced: Нет
Текст #1
Идентификатор: 7
Формат: UTF-8
Идентификатор кодека: S_TEXT/UTF8
Идентификатор кодека/Информация: UTF-8 Plain Text
Заголовок: Deska
Язык: Russian
Default: Нет
Forced: Нет
Текст #2
Идентификатор: 8
Формат: UTF-8
Идентификатор кодека: S_TEXT/UTF8
Идентификатор кодека/Информация: UTF-8 Plain Text
Заголовок: CC
Язык: English
Default: Нет
Forced: Нет
Когда раздача ведётся путём добавления новых серий, при каждом добавлении создётся новый торрент. Чтобы начать докачку новой серии, пользователям необходимо сделать следующее:
(1) остановить скачивание,
(2) удалить старый торрент у себя из клиента (старые серии удалять не надо),
(3) скачать новый торрент и запустить его у себя в клиенте вместо старого, при этом указать клиенту путь в старую папку, куда и должно происходить скачивание новых серий.
Ваш клиент при этом должен произвести хеширование (проверку) старой папки (если не производит сам - помогите ему сделать это), и будет докачивать только те серии, которых у вас ещё нет. Старые серии при этом не удаляются, а продолжают раздаваться!
Eсли вы уже удалили старые серии, то предотвратить повторную закачку старых серий можно, отжав галочку в соответсвующих местах при запуске нового торрента. По возможности, желательно не удалять старые серии как можно дольше, чтобы релизёр не столько продолжал раздавать старые серии, а смог сконцентрироваться на новых.



   Похожие торренты   Торрент   Размер 
В этой теме нет новых непрочитанных сообщений. Трансформеры: Скрытые роботы / Трансформеры: Роботы в маскировке / Transformers: Robots in Disguise [01x01-02] (2015) WEB-DL 1080p | L, L1

151 | 18

1.91 ГБ

В этой теме нет новых непрочитанных сообщений. Трансформеры: Скрытые роботы / Трансформеры: роботы в маскировке / Transformers: Robots in Disguise [01x01 из 26] (2015) WEB-DL 720p | L

139 | 67

784.62 МБ

В этой теме нет новых непрочитанных сообщений. Трансформеры: Скрытые роботы / Трансформеры: Роботы в маскировке / Transformers: Robots in Disguise [01x01-02] (2015) WEB-DLRip | L

269 | 16

567.39 МБ

В этой теме нет новых непрочитанных сообщений. Трансформеры: Скрытые роботы / Трансформеры: Роботы в маскировке / Transformers: Robots in Disguise [01x01-02] (2015) WEB-DL 720p | L, L1

130 | 81

1.56 ГБ

В этой теме нет новых непрочитанных сообщений. Трансформеры: Скрытые роботы / Transformers: Robots in Disguise [01x01 из XX] (2015) WEB-DLRip | L

70 | 7

283.8 МБ

В этой теме нет новых непрочитанных сообщений. Трансформеры: Скрытые роботы / Transformers: Robots in Disguise [01x01 из XX] (2015) WEB-DL 720p | L, L1

12 | 5

821.99 МБ

В этой теме нет новых непрочитанных сообщений. Трансформеры: Скрытые роботы / Трансформеры: роботы в маскировке (1 сезон, 26 из 26) / Transformers: Robots in Disguise (Дэвид Хартман, Скутер Тидвелл) [2015, боевик, комедия, приключения, WEB-DL 720p] MVO, DUB

232 | 79

18.41 ГБ




Вы не можете начинать темы
Вы не можете отвечать на сообщения
Вы не можете редактировать свои сообщения
Вы не можете удалять свои сообщения
Вы не можете добавлять вложения

Перейти:  
Для Мосгорсуда, Роскомнадзора и рекламодателей: mosgorsud-torrent[собачка]yandex.ru
 Вход
ppkBB3cker v.2 © 2008-2014 @ PPK
[ Time : 0.053s | 16 Queries | GZIP : Off ]

cron