img image001 image001 image001 image001 image001 image001 image001 image001 image001 image001 image001 image001 image001 image001 image001

Planets Sun Sun Sun
Статистика раздачи
Автор: Nickolas3434 | Размер: 751.62 МБ | Добавлен: 31 мар 2015
Раздают: 458    Качают: 6
Скачать торрент
Скачать торрент
Описание торрента

СообщениеДобавлено: 31 мар 2015 



Дом / Home




Производство: США / DreamWorks Animation
Год выпуска: 2015 г.
Жанр: мультфильм, фантастика, фэнтези, комедия, приключения, семейный
Продолжительность: 01:21:36
Мировая премьера: 7 марта 2015
Российская премьера: 19 марта 2015, «Двадцатый Век Фокс СНГ»
Перевод: Профессиональный (полное дублирование)
Режиссер: Тим Джонсон / Tim Johnson


В ролях: Джим Парсонс, Рианна, Стив Мартин, Дженнифер Лопез, Мэтт Джонс, Брайан Степанек, Эйприл Стрюбинг, Стивен Кеарин, Лиза Стюарт, Эйприл Уинчелл


Описание: Захватив Землю, раса пришельцев Був тут же начинает заниматься её благоустройством и реорганизацией. «Не стоит благодарности!» — заявляют они землянам, собранным на время в отдельных резервациях. Находчивая и рисковая девочка по имени Дар, чудом сбежавшая от пришельцев, встречает на своем пути самого раздражающе-оптимистичного Бува по имени О, отвергнутого своими инопланетными собратьями. Этой, казалось бы, несовместимой парочке предстоит спасти нашу планету. Хорошо, что у них есть летающий автомобиль!

Качество видео: CamRip
Контейнер: AVI
Видео кодек: XviD
Аудио кодек: MP3
Видео: 1148 Кбит/сек, 640x304, 29,970 кадров/сек, 0.197 Бит/(Пиксели*Кадры)
Аудио: 128 Кбит/сек, 2 канала, 44,1 КГц
Cубтитры: отсутствуют
Контакт неизбежен…
Да, такого инопланетного вторжения в кино ещё не было. Раса пришельцев Бувов, очень мило завоевала нашу планету, переселила всех людей, вручила по мороженому, а сами заселили наши мегаполисы. В итоге все счастливы (по мнению Бувов). А девочка по имени Дар хочет найти свою маму и на её пути встречается Був по имени О. Теперь они вместе отправятся в интересное путешествие…
Мультфильм мне очень понравился, он получился добрым, веселым, позитивным с интересными героями, я бы не сказала что это совсем детский мультфильм, здесь затрагиваются разные темы жизни о дружбе, о взаимопомощи, о том что несмотря ни на что, нельзя сдаваться и нужно идти к своей цели до конца, о том как обрести семью и дом.
Мультфильм, на мой взгляд, получился очень динамичным, одни события быстро меняются другими, в общем не заскучаешь. Мне понравился саундтрек, песни Rihanna, Jennifer Lopez, Charli XCX, нам мой взгляд, они отлично вписались в атмосферу мультфильма.
Бувы получились очень смешными и яркими персонажами, здорово смотрелось как у них окрас менялся в зависимости от переживаемых эмоций и они действовали с самыми добрыми намерениями, чтобы у всех всё было хорошо. Сама девочка Дар, на мой взгляд, находит в лице О настоящего друга, которого ей не хватало, как и Буву О, который хотел найти друзей. Ещё мне очень понравился кот девочки милый персонаж.
В общем, «Дом» это добрый, позитивный мультфильм с забавными и яркими персонажами, с интересной историей о том как найти свое предназначение, обрести друзей и семью, а главное найти свой дом и жить в мире и согласии.
9 из 10

Фильм основан на книге Адама Рекса «The True Meaning of Smekday» (Настоящее значение Дня Смека).
Весь саундтрек к фильму написала Рианна.
[*]Изначально персонажа Джима Парсонса звали «Джей Ло» (J. Lo), однако в итоге имя изменили на «О» (Oh). В реальной жизни Джей Ло – это прозвище Дженнифер Лопез, которая, кстати, тоже озвучивала одного из персонажей фильма.

Общее
Формат : AVI
Формат/Информация : Audio Video Interleave
Размер файла : 752 Мбайт
Продолжительность : 1 ч. 21 м.
Общий поток : 1288 Кбит/сек
Программа кодирования : VirtualDubMod 1.5.10.3 | www.virtualdub-fr.org || (build 2550/release)
Библиотека кодирования : VirtualDub build 35491/release
Видео
Идентификатор : 0
Формат : MPEG-4 Visual
Профиль формата : Advanced Simple@L5
Параметр BVOP формата : 2
Параметр QPel формата : Нет
Параметр GMC формата : Без точки перехода
Параметр матрицы формата : Default (H.263)
Режим смешивания : Сжатый битовый поток
Идентификатор кодека : XVID
Идентификатор кодека/Подсказка : XviD
Продолжительность : 1 ч. 21 м.
Битрейт : 1148 Кбит/сек
Ширина : 640 пикселей
Высота : 304 пикселя
Соотношение сторон : 2,105
Частота кадров : 29,970 кадров/сек
Цветовое пространство : YUV
Субдискретизация насыщенности : 4:2:0
Битовая глубина : 8 бит
Тип развёртки : Прогрессивная
Метод сжатия : С потерями
Бит/(Пиксели*Кадры) : 0.197
Размер потока : 670 Мбайт (89%)
Библиотека кодирования : XviD 73
Аудио
Идентификатор : 1
Формат : MPEG Audio
Версия формата : Version 1
Профиль формата : Layer 3
Режим : Joint stereo
Расширение режима : MS Stereo
Идентификатор кодека : 55
Идентификатор кодека/Подсказка : MP3
Продолжительность : 1 ч. 21 м.
Вид битрейта : Постоянный
Битрейт : 128 Кбит/сек
Каналы : 2 канала
Частота : 44,1 КГц
Метод сжатия : С потерями
Размер потока : 74,5 Мбайт (10%)
Выравнивание : Разделение по промежуткам
Продолжительность промежутка : 33 мс. (1,00 видеокадр)
Время предзагрузки промежутка : 501 мс.





   Похожие торренты   Торрент   Размер 
В этой теме нет новых непрочитанных сообщений. Дом / Home (2015) CAMRip

6828 | 216

1.37 ГБ

В этой теме нет новых непрочитанных сообщений. Дом / Home (2015) CAMRip *PROPER* | D

359 | 11

750.37 МБ

В этой теме нет новых непрочитанных сообщений. Дом / Home (2015) CAMRip *PROPER* | D

2765 | 132

1.37 ГБ

В этой теме нет новых непрочитанных сообщений. Здравствуй, папа, Новый год / Daddy's Home (2015) CamRip

8540 | 569

1.37 ГБ

В этой теме нет новых непрочитанных сообщений. Здравствуй, папа, Новый год / Daddy's Home (2015) BDRip 720p | Звук c CAMRip

3067 | 102

4.47 ГБ

В этой теме нет новых непрочитанных сообщений. Дом странных детей Мисс Перегрин / Miss Peregrine's Home for Peculiar Children (2016) CAMRip | L

197 | 8

1.46 ГБ

В этой теме нет новых непрочитанных сообщений. Дом странных детей Мисс Перегрин / Miss Peregrine's Home for Peculiar Children (2016) CAMRip | D

68 | 0

1.37 ГБ




Вы не можете начинать темы
Вы не можете отвечать на сообщения
Вы не можете редактировать свои сообщения
Вы не можете удалять свои сообщения
Вы не можете добавлять вложения

Перейти:  
Для Мосгорсуда, Роскомнадзора и рекламодателей: mosgorsud-torrent[собачка]yandex.ru
 Вход
ppkBB3cker v.2 © 2008-2014 @ PPK
[ Time : 0.052s | 15 Queries | GZIP : Off ]

Торрент трекер RUTOR.IN, Не можете зайти на rutor.org? Какой новый адрес рутор? Какое зеркало рутор? Не работает rutor.org и зеркала? Тогда наш торрент специально для вас. Rutor.in неофициальное зеркало rutor. В случае если у Вас заблокирован rutor или вдруг Вы не можете на него зайти, то Вы без труда сможете скачать бесплатно и без рекламы последние новинки кино, игр, сериалов и прочего у нас, на Rutor.in. Не нужно использовать прокси, чтобы зайти на рутор, достаточно воспользоваться нашим ресурсом. Все новые фильмы, игры, сериалы, книги и музыка за 2013 и 2014 годы через торрент бесплатно. Скачивайте фильмы в хорошем качестве, игры для пк, xbox, playstation без регистрации. У нас вы найдете новые Зарубежные сериалы и Русские сериалы 2013, 2014, 2015 годов. Оставайтесь с нами, качайте любимые фильмы, игры, сериалы, книги и музыку.
cron