img image001 image001 image001 image001 image001 image001 image001 image001 image001 image001 image001 image001 image001 image001 image001

Planets Sun Sun Sun
Статистика раздачи
Автор: Nickolas3434 | Размер: 5.75 ГБ | Добавлен: 31 мар 2015
Раздают: 29    Качают: 10
Скачать торрент
Скачать торрент
Описание торрента

СообщениеДобавлено: 31 мар 2015 


Информация о фильме
    Русское название: Вальс с Баширом
    Оригинальное название: Waltz with Bashir
    Год выхода: 2008
    Жанр: мультфильм, документальный, драма, военный, биография
    Режиссер: Ари Фольман
    Выпущено: Израиль, Франция, Германия, США, Финляндия, Швейцария, Бельгия, Австралия
    Продолжительность: 01:30:19
    Перевод: Профессиональный (Многоголосый закадровый)
    Роли озвучивали: Рон Бен-Ишай, Ронни Даяг, Ари Фольман, Shmuel Frenkel, Дрор Харази, Ехезкель Лазаров, Мики Леон, Ори Сиван, Захава Соломон


Сюжет фильма
    Старый друг Ари Фольмана, сидя ночью в баре, жалуется ему на то, что его преследует один и тот же ужасный сон: за ним гонятся 26 разъяренных собак. Почему 26? «Все очень просто, — отвечает приятель, — когда мы были на войне в Ливане, в 82-м году, в моей роте знали, что я стрелять в людей не смогу. Мне поручили перестрелять всех собак в арабской деревне. Собаки воют и лают, когда чувствуют чужаков и, таким образом, предупреждают террористов. И я перестрелял всех 26 собак, которые были в этой деревне. С тех пор они мне снятся каждую ночь. Ты мог бы что-нибудь с этим сделать?»


Файл
    Качество: BDRip 1080p (исходник Blu-ray Disc Remux)
    Видео: 1920x1080, 8230 Кбит/сек, 24,000 кадр/сек, AVC, x264, High@L4.1, 16:9, 0.165 Бит/[Пиксели*Кадры]
    Аудио 1: AC-3, 448 Кбит/сек, 6 канала(ов), 48,0 КГц - Многоголосый закадровый / Русский
    Аудио 2: AC-3, 448 Кбит/сек, 6 канала(ов), 48,0 КГц - Оригинал / Иврит
    Субтитры: Русские | Полные, Английские | Полные
    Форсированные субтитры: Нет
    Чаптеры (Главы): Есть



Автор Рипа: Сообщество:



Format : Matroska
Format version : Version 2
File size : 5.75 GiB
Duration : 1h 30mn
Overall bit rate : 9 116 Kbps
Movie name : Вальс с Баширом.(2008).BDRip.1080p.[envy]
Encoded date : UTC 2015-03-30 12:36:34
Writing application : mkvmerge v5.8.0 ('No Sleep / Pillow') built on Sep 2 2012 15:37:04
Writing library : libebml v1.2.3 + libmatroska v1.3.0
Video
ID : 1
Format : AVC
Format/Info : Advanced Video Codec
Format profile : High@L4.1
Format settings, CABAC : Yes
Format settings, ReFrames : 4 frames
Codec ID : V_MPEG4/ISO/AVC
Duration : 1h 30mn
Bit rate : 8 230 Kbps
Width : 1 920 pixels
Height : 1 080 pixels
Display aspect ratio : 16:9
Frame rate mode : Constant
Frame rate : 24.000 fps
Color space : YUV
Chroma subsampling : 4:2:0
Bit depth : 8 bits
Scan type : Progressive
Bits/(Pixel*Frame) : 0.165
Stream size : 5.07 GiB (88%)
Title : Вальс с Баширом.(2008).BDRip.1080p.[envy]
Writing library : x264 core 146 r2538 121396c
Encoding settings : cabac=1 / ref=4 / deblock=1:0:0 / analyse=0x3:0x133 / me=umh / subme=11 / psy=1 / psy_rd=1.00:0.00 / mixed_ref=1 / me_range=48 / chroma_me=1 / trellis=2 / 8x8dct=1 / cqm=0 / deadzone=21,11 / fast_pskip=0 / chroma_qp_offset=-2 / threads=12 / lookahead_threads=2 / sliced_threads=0 / nr=0 / decimate=1 / interlaced=0 / bluray_compat=0 / constrained_intra=0 / bframes=8 / b_pyramid=2 / b_adapt=2 / b_bias=0 / direct=3 / weightb=1 / open_gop=0 / weightp=2 / keyint=240 / keyint_min=24 / scenecut=40 / intra_refresh=0 / rc=2pass / mbtree=0 / bitrate=8230 / ratetol=2.0 / qcomp=0.60 / qpmin=0 / qpmax=69 / qpstep=4 / cplxblur=20.0 / qblur=0.5 / ip_ratio=1.40 / pb_ratio=1.30 / aq=2:1.00
Language : English
Default : Yes
Forced : No
Audio #1
ID : 2
Format : AC-3
Format/Info : Audio Coding 3
Mode extension : CM (complete main)
Format settings, Endianness : Big
Codec ID : A_AC3
Duration : 1h 30mn
Bit rate mode : Constant
Bit rate : 448 Kbps
Channel(s) : 6 channels
Channel positions : Front: L C R, Side: L R, LFE
Sampling rate : 48.0 KHz
Bit depth : 16 bits
Compression mode : Lossy
Stream size : 289 MiB (5%)
Title : MVO R5
Language : Russian
Default : Yes
Forced : No
Audio #2
ID : 3
Format : AC-3
Format/Info : Audio Coding 3
Mode extension : CM (complete main)
Format settings, Endianness : Big
Codec ID : A_AC3
Duration : 1h 30mn
Bit rate mode : Constant
Bit rate : 448 Kbps
Channel(s) : 6 channels
Channel positions : Front: L C R, Side: L R, LFE
Sampling rate : 48.0 KHz
Bit depth : 16 bits
Compression mode : Lossy
Stream size : 289 MiB (5%)
Title : Heb
Language : Hebrew
Default : No
Forced : No
Text #1
ID : 4
Format : UTF-8
Codec ID : S_TEXT/UTF8
Codec ID/Info : UTF-8 Plain Text
Title : Rus full
Language : Russian
Default : No
Forced : No
Text #2
ID : 5
Format : UTF-8
Codec ID : S_TEXT/UTF8
Codec ID/Info : UTF-8 Plain Text
Title : Eng full
Language : English
Default : No
Forced : No
Menu
00:00:00.000 : :Chapter 01
00:07:18.041 : :Chapter 02
00:15:10.375 : :Chapter 03
00:22:16.416 : :Chapter 04
00:29:02.875 : :Chapter 05
00:37:25.000 : :Chapter 06
00:46:11.500 : :Chapter 07
00:53:37.625 : :Chapter 08
00:58:03.458 : :Chapter 09
01:05:59.208 : :Chapter 10
01:15:29.708 : :Chapter 11
01:23:17.250 : :Chapter 12


#77



   Похожие торренты   Торрент   Размер 
В этой теме нет новых непрочитанных сообщений. Вальс с Баширом / Vals im Bashir / Waltz with Bashir (2008) BDRip

1 | 2

1.74 ГБ

В этой теме нет новых непрочитанных сообщений. Вальс с Баширом / Waltz with Bashir (2008) BDRip от HQCLUB

141 | 20

1.45 ГБ

В этой теме нет новых непрочитанных сообщений. Последний вальс / The Last Waltz (1978) BDRip от HQ-ViDEO

8 | 2

2.18 ГБ

В этой теме нет новых непрочитанных сообщений. Большой Вальс / The Great Waltz (1938) DVDRip

127 | 9

1.37 ГБ

В этой теме нет новых непрочитанных сообщений. OST - Последний вальс / The Last Waltz (The Band) 40th Anniversary 2CD (2016) FLAC

27 | 2

836.86 МБ

В этой теме нет новых непрочитанных сообщений. Примите этот вальс / Любит / Не любит / Take This Waltz (2011) HDRip by semiramida1970 | P

49 | 13

2.05 ГБ

В этой теме нет новых непрочитанных сообщений. Вальс Мефистофеля / Der Mephisto-Waltzer / The Mephisto Waltz (1971) DVDRip

10 | 4

1.52 ГБ




Вы не можете начинать темы
Вы не можете отвечать на сообщения
Вы не можете редактировать свои сообщения
Вы не можете удалять свои сообщения
Вы не можете добавлять вложения

Перейти:  
Для Мосгорсуда, Роскомнадзора и рекламодателей: mosgorsud-torrent[собачка]yandex.ru
 Вход
ppkBB3cker v.2 © 2008-2014 @ PPK
[ Time : 0.044s | 15 Queries | GZIP : On ]

Торрент трекер RUTOR.IN, Не можете зайти на rutor.org? Какой новый адрес рутор? Какое зеркало рутор? Не работает rutor.org и зеркала? Тогда наш торрент специально для вас. Rutor.in неофициальное зеркало rutor. В случае если у Вас заблокирован rutor или вдруг Вы не можете на него зайти, то Вы без труда сможете скачать бесплатно и без рекламы последние новинки кино, игр, сериалов и прочего у нас, на Rutor.in. Не нужно использовать прокси, чтобы зайти на рутор, достаточно воспользоваться нашим ресурсом. Все новые фильмы, игры, сериалы, книги и музыка за 2013 и 2014 годы через торрент бесплатно. Скачивайте фильмы в хорошем качестве, игры для пк, xbox, playstation без регистрации. У нас вы найдете новые Зарубежные сериалы и Русские сериалы 2013, 2014, 2015 годов. Оставайтесь с нами, качайте любимые фильмы, игры, сериалы, книги и музыку.