img image001 image001 image001 image001 image001 image001 image001 image001 image001 image001 image001 image001 image001 image001 image001

Planets Sun Sun Sun
Статистика раздачи
Автор: Nickolas3434 | Размер: 89.64 МБ | Добавлен: 02 апр 2015
Раздают: 172    Качают: 12
Скачать торрент
Скачать торрент
Описание торрента

СообщениеДобавлено: 02 апр 2015 

Оригинальное название: Маша и Медведь
Год выпуска: 2015
Жанр: Мультсериал, компьютерная анимация, сказка, детский, семейный
Выпущено: Россия, Студия "Анимаккорд"
Режиссер: Олег Кузовков, Владислав Байрамгулов
В ролях: Алина Кукушкина, Борис Кутневич, Эдуард Назаров
О фильме: Маша раскрывает в себе сразу несколько талантов, а Медведь наконец-то совершает долгожданную покупку — новый современный телевизор! Маша не может упустить столь прекрасный шанс доказать всем окружающим, что творческий подход к жизни решает любые проблемы, особенно, если взять Панду в помощники!
Качество: WEBRip
Видео: XviD, 1705 Кбит/с, 720x400
Аудио: MP3, 2 ch, 128 Кбит/с
Продолжительность: 00:06:46
Язык: Русский
Релиз:

Общее
Полное имя : D:РелизыМаша.и.Медведь.49.WEBRip.MegaPeer.avi
Формат : AVI
Формат/Информация : Audio Video Interleave
Размер файла : 89,6 Мбайт
Продолжительность : 6 м. 48 с.
Общий поток : 1842 Кбит/сек
Программа кодирования : VirtualDubMod 1.5.10.3 | www.virtualdub-fr.org || (build 2550/release)
Библиотека кодирования : VirtualDubMod build 2550/release
Видео
Идентификатор : 0
Формат : MPEG-4 Visual
Профиль формата : Advanced Simple@L5
Параметр BVOP формата : 1
Параметр QPel формата : Нет
Параметр GMC формата : Без точки перехода
Параметр матрицы формата : Default (H.263)
Идентификатор кодека : XVID
Идентификатор кодека/Подсказка : XviD
Продолжительность : 6 м. 48 с.
Битрейт : 1705 Кбит/сек
Ширина : 720 пикселей
Высота : 400 пикселей
Соотношение сторон : 16:9
Частота кадров : 24,000 кадра/сек
Цветовое пространство : YUV
Субдискретизация насыщенности : 4:2:0
Битовая глубина : 8 бит
Тип развёртки : Прогрессивная
Метод сжатия : С потерями
Бит/(Пиксели*Кадры) : 0.247
Размер потока : 82,9 Мбайт (93%)
Библиотека кодирования : XviD 73
Аудио
Идентификатор : 1
Формат : MPEG Audio
Версия формата : Version 1
Профиль формата : Layer 3
Идентификатор кодека : 55
Идентификатор кодека/Подсказка : MP3
Продолжительность : 6 м. 48 с.
Вид битрейта : Постоянный
Битрейт : 128 Кбит/сек
Каналы : 2 канала
Частота : 44,1 КГц
Метод сжатия : С потерями
Размер потока : 6,23 Мбайт (7%)
Выравнивание : Разделение по промежуткам
Продолжительность промежутка : 42 мс. (1,00 видеокадр)
Время предзагрузки промежутка : 500 мс.
Библиотека кодирования : LAME3.99r
Настройки программы : -m s -V 4 -q 2 -lowpass 17 -b 128



   Похожие торренты   Торрент   Размер 
В этой теме нет новых непрочитанных сообщений. Маша и медведь: Дорогая передача [49] (2014) WEBRip от FreeRutor

338 | 9

98.12 МБ

В этой теме нет новых непрочитанных сообщений. Маша и медведь: Дорогая передача [49] (2014) WEB-DLRip от GeneralFilm

1641 | 27

108.67 МБ

В этой теме нет новых непрочитанных сообщений. Маша и Медведь: Дорогая передача [49] (2014) WEB-DLRip-AVC от ExKinoRay

593 | 19

128.27 МБ

В этой теме нет новых непрочитанных сообщений. Маша и медведь+Машкини срашилки. / Маша и медведь+Машкины страшилки [1-61, 1-17] (2009-2017) BDRip, WEB-DLRip

42 | 34

12.62 ГБ

В этой теме нет новых непрочитанных сообщений. Маша и медведь: Сказка на ночь [39] (2014) WEBRip

260 | 7

90.98 МБ

В этой теме нет новых непрочитанных сообщений. Маша и Медведь - Дело в шляпе [41] (2014) WebRip

1164 | 61

104.11 МБ

В этой теме нет новых непрочитанных сообщений. Маша и Медведь - Дело в шляпе [41] (2014) WebRip

4952 | 518

91.61 МБ




Вы не можете начинать темы
Вы не можете отвечать на сообщения
Вы не можете редактировать свои сообщения
Вы не можете удалять свои сообщения
Вы не можете добавлять вложения

Перейти:  
Для Мосгорсуда, Роскомнадзора и рекламодателей: mosgorsud-torrent[собачка]yandex.ru
 Вход
ppkBB3cker v.2 © 2008-2014 @ PPK
[ Time : 0.036s | 17 Queries | GZIP : Off ]

Торрент трекер RUTOR.IN, Не можете зайти на rutor.org? Какой новый адрес рутор? Какое зеркало рутор? Не работает rutor.org и зеркала? Тогда наш торрент специально для вас. Rutor.in неофициальное зеркало rutor. В случае если у Вас заблокирован rutor или вдруг Вы не можете на него зайти, то Вы без труда сможете скачать бесплатно и без рекламы последние новинки кино, игр, сериалов и прочего у нас, на Rutor.in. Не нужно использовать прокси, чтобы зайти на рутор, достаточно воспользоваться нашим ресурсом. Все новые фильмы, игры, сериалы, книги и музыка за 2013 и 2014 годы через торрент бесплатно. Скачивайте фильмы в хорошем качестве, игры для пк, xbox, playstation без регистрации. У нас вы найдете новые Зарубежные сериалы и Русские сериалы 2013, 2014, 2015 годов. Оставайтесь с нами, качайте любимые фильмы, игры, сериалы, книги и музыку.