img image001 image001 image001 image001 image001 image001 image001 image001 image001 image001 image001 image001 image001 image001 image001

Planets Sun Sun Sun
Статистика раздачи
Автор: Nickolas3434 | Размер: 3.5 ГБ | Добавлен: 02 апр 2015
Раздают: 44    Качают: 6
Скачать торрент
Скачать торрент
Описание торрента

СообщениеДобавлено: 02 апр 2015 


Информация о фильме
    Русское название: Трио из Бельвилля
    Оригинальное название: Les triplettes de Belleville
    Год выхода: 2003
    Жанр: мультфильм, комедия
    Режиссер: Сильвен Шомэ
    Выпущено: Франция, Бельгия, Канада, Великобритания, Латвия
    Продолжительность: 01:20:39
    Перевод: Дублированный
    Роли озвучивали: Беатрис Бонифасси, Лина Бодро, Мишель Кочето, Жан-Клод Донда, Мари-Лу Готье, Чарльз Линтон, Мишель Робен, Моника Виега


Сюжет фильма
    Чемпион — маленький мальчик, усыновленный своей бабушкой мадам Сузой. Мадам Суза замечает, что наиболее счастливым мальчик чувствует себя верхом на велосипеде, и поэтому настаивает на том, чтобы он самым серьезным образом тренировался. Проходят годы и, наконец, Чемпион становится достойным собственного имени. Он готов участвовать во всемирно известной гонке Тур-де-Франс. Но во время соревнования двое таинственных неизвестных в черном выкрадывают Чемпиона. Мадам Суза и ее верный пес Брюно должны его освободить.
    Во время поисков они оказываются за океаном в огромном мегаполисе Бельвилль и встречают известных «бельвилльских тройняшек» — трех эксцентричных звезд-певиц мюзик-холла 30-х годов. «Тройняшки» берут мадам Сузу и Брюно под свою опеку. Благодаря острому нюху Бруно храбрая пара вскоре нападает на след Чемпиона. Но удастся ли им расстроить дьявольские планы злобной французской мафии?


Файл
    Качество: BDRip 1080p (исходник Blu-ray Disc Remux)
    Видео: 1828x1080, 5312 Кбит/сек, 23,976 кадр/сек, AVC, x264, High@L4.1, 1.693, 0.112 Бит/[Пиксели*Кадры]
    Аудио 1: AC-3, 448 Кбит/сек, 6 канала(ов), 48,0 КГц - Многоголосый закадровый / Русский
    Аудио 2: AC-3, 448 Кбит/сек, 6 канала(ов), 48,0 КГц - Оригинал / Французский
    Субтитры: Русские | Полные, Английские | Полные
    Форсированные субтитры: Нет
    Чаптеры (Главы): Есть



Автор Рипа: Сообщество:



Format : Matroska
Format version : Version 2
File size : 3.50 GiB
Duration : 1h 20mn
Overall bit rate : 6 203 Kbps
Movie name : Трио из Бельвилля.(2003).BDRip.1080p.[envy]
Encoded date : UTC 2015-04-01 12:50:32
Writing application : mkvmerge v5.8.0 ('No Sleep / Pillow') built on Sep 2 2012 15:37:04
Writing library : libebml v1.2.3 + libmatroska v1.3.0
Video
ID : 1
Format : AVC
Format/Info : Advanced Video Codec
Format profile : High@L4.1
Format settings, CABAC : Yes
Format settings, ReFrames : 4 frames
Codec ID : V_MPEG4/ISO/AVC
Duration : 1h 20mn
Bit rate : 5 312 Kbps
Width : 1 828 pixels
Height : 1 080 pixels
Display aspect ratio : 1.693
Frame rate mode : Constant
Frame rate : 23.976 fps
Color space : YUV
Chroma subsampling : 4:2:0
Bit depth : 8 bits
Scan type : Progressive
Bits/(Pixel*Frame) : 0.112
Stream size : 2.92 GiB (84%)
Title : Трио из Бельвилля.(2003).BDRip.1080p.[envy]
Writing library : x264 core 146 r2538 121396c
Encoding settings : cabac=1 / ref=4 / deblock=1:-1:-1 / analyse=0x3:0x133 / me=umh / subme=11 / psy=1 / psy_rd=1.00:0.00 / mixed_ref=1 / me_range=48 / chroma_me=1 / trellis=2 / 8x8dct=1 / cqm=0 / deadzone=21,11 / fast_pskip=0 / chroma_qp_offset=-2 / threads=12 / lookahead_threads=2 / sliced_threads=0 / nr=0 / decimate=1 / interlaced=0 / bluray_compat=0 / constrained_intra=0 / bframes=9 / b_pyramid=2 / b_adapt=2 / b_bias=0 / direct=3 / weightb=1 / open_gop=0 / weightp=2 / keyint=240 / keyint_min=23 / scenecut=40 / intra_refresh=0 / rc=2pass / mbtree=0 / bitrate=5312 / ratetol=2.0 / qcomp=0.60 / qpmin=0 / qpmax=69 / qpstep=4 / cplxblur=20.0 / qblur=0.5 / ip_ratio=1.40 / pb_ratio=1.30 / aq=2:1.00
Language : English
Default : Yes
Forced : No
Audio #1
ID : 2
Format : AC-3
Format/Info : Audio Coding 3
Mode extension : CM (complete main)
Format settings, Endianness : Big
Codec ID : A_AC3
Duration : 1h 20mn
Bit rate mode : Constant
Bit rate : 448 Kbps
Channel(s) : 6 channels
Channel positions : Front: L C R, Side: L R, LFE
Sampling rate : 48.0 KHz
Bit depth : 16 bits
Compression mode : Lossy
Stream size : 258 MiB (7%)
Title : Dub
Language : Russian
Default : Yes
Forced : No
Audio #2
ID : 3
Format : AC-3
Format/Info : Audio Coding 3
Mode extension : CM (complete main)
Format settings, Endianness : Big
Codec ID : A_AC3
Duration : 1h 20mn
Bit rate mode : Constant
Bit rate : 448 Kbps
Channel(s) : 6 channels
Channel positions : Front: L C R, Side: L R, LFE
Sampling rate : 48.0 KHz
Bit depth : 16 bits
Compression mode : Lossy
Stream size : 258 MiB (7%)
Title : Fre
Language : French
Default : No
Forced : No
Text #1
ID : 4
Format : UTF-8
Codec ID : S_TEXT/UTF8
Codec ID/Info : UTF-8 Plain Text
Title : Rus full
Language : Russian
Default : No
Forced : No
Text #2
ID : 5
Format : UTF-8
Codec ID : S_TEXT/UTF8
Codec ID/Info : UTF-8 Plain Text
Title : Eng full
Language : English
Default : No
Forced : No
Menu
00:00:00.000 : :00:00:00.000
00:03:42.973 : :00:03:42.973
00:08:14.452 : :00:08:14.452
00:12:17.612 : :00:12:17.612
00:20:15.798 : :00:20:15.798
00:29:02.991 : :00:29:02.991
00:33:48.693 : :00:33:48.693
00:38:02.572 : :00:38:02.572
00:40:56.454 : :00:40:56.454
00:48:19.522 : :00:48:19.522
00:52:15.799 : :00:52:15.799
00:58:13.156 : :00:58:13.156
01:01:25.974 : :01:01:25.974
01:05:41.604 : :01:05:41.604
01:09:00.970 : :01:09:00.970
01:14:32.259 : :01:14:32.259


#77



   Похожие торренты   Торрент   Размер 
В этой теме нет новых непрочитанных сообщений. Трио из Бельвилля / Les triplettes de Belleville (2003) BDRip

1 | 1

1.71 ГБ

В этой теме нет новых непрочитанных сообщений. Трио из Бельвилля / Les triplettes de Belleville (2003) BDRip-AVC от MediaClub | D, P2, A

146 | 6

2.75 ГБ

В этой теме нет новых непрочитанных сообщений. Трио из Бельвилля / Les triplettes de Belleville (2003) BDRip от HQCLUB

24 | 3

1.45 ГБ

В этой теме нет новых непрочитанных сообщений. Трио из Бельвилля / Triplettes de Belleville, Les (2003) HDRip от HQ-ViDEO

28 | 2

1.46 ГБ

В этой теме нет новых непрочитанных сообщений. Трио из Бельвилля / Les triplettes de Belleville (2003) HDTV 720p от PskovLine

1 | 3

3.22 ГБ

В этой теме нет новых непрочитанных сообщений. Трио Современной Джазовой Музыки (Ганелин трио) - Джазовые Импровизации (19....

44 | 1

93.69 МБ

В этой теме нет новых непрочитанных сообщений. 21 грамм / 21 Grams (2003) BDRip 1080p от NNNB

81 | 6

11.54 ГБ




Вы не можете начинать темы
Вы не можете отвечать на сообщения
Вы не можете редактировать свои сообщения
Вы не можете удалять свои сообщения
Вы не можете добавлять вложения

Перейти:  
Для Мосгорсуда, Роскомнадзора и рекламодателей: mosgorsud-torrent[собачка]yandex.ru
 Вход
ppkBB3cker v.2 © 2008-2014 @ PPK
[ Time : 0.039s | 16 Queries | GZIP : Off ]

Торрент трекер RUTOR.IN, Не можете зайти на rutor.org? Какой новый адрес рутор? Какое зеркало рутор? Не работает rutor.org и зеркала? Тогда наш торрент специально для вас. Rutor.in неофициальное зеркало rutor. В случае если у Вас заблокирован rutor или вдруг Вы не можете на него зайти, то Вы без труда сможете скачать бесплатно и без рекламы последние новинки кино, игр, сериалов и прочего у нас, на Rutor.in. Не нужно использовать прокси, чтобы зайти на рутор, достаточно воспользоваться нашим ресурсом. Все новые фильмы, игры, сериалы, книги и музыка за 2013 и 2014 годы через торрент бесплатно. Скачивайте фильмы в хорошем качестве, игры для пк, xbox, playstation без регистрации. У нас вы найдете новые Зарубежные сериалы и Русские сериалы 2013, 2014, 2015 годов. Оставайтесь с нами, качайте любимые фильмы, игры, сериалы, книги и музыку.