img image001 image001 image001 image001 image001 image001 image001 image001 image001 image001 image001 image001 image001 image001 image001

Planets Sun Sun Sun
Статистика раздачи
Автор: Nickolas3434 | Размер: 3.83 ГБ | Добавлен: 02 апр 2015
Раздают: 301    Качают: 13
Скачать торрент
Скачать торрент
Описание торрента

СообщениеДобавлено: 02 апр 2015 

Информация о фильме
Название: Песнь моря
Оригинальное название: Song of the Sea
Год выпуска: 2014
Жанр: Мультфильм, фэнтези, семейный, полнометражный
Выпущено: Ирландия, Дания, Бельгия, Люксембург, Франция, Big Farm, Cartoon Saloon, Digital Graphics
Режиссер: Томм Мур
В ролях: Брендан Глисон, Финола Флэнаган, Пэт Шорт, Дэвид Роул, Лиза Хэннигэн, Джон Кенни
О фильме: Море всегда чарует своей природой. О морях сложено немало легенд. Некоторые из них мама рассказывает своим сыну и дочери. Эти легенды передаются из поколения в поколение: в морских водах живут удивительные существа - селки. Это заколдованные люди в образе тюленей. Дети сначала воспринимают историю матери как сказку. Но вскоре выясняется что дочь Сирша оказывается последней представительницей чудесных существ. Она - селки. Детям открываются многие тайны, о которых они раньше и не подозревали.
Файл
Качество: BDRip (720p)
Видео: MPEG-4 AVC, 4251 Кбит/с, 1280x694
Аудио: Русский, английский (АС3, 6 ch, 640 Кбит/с), английский (АС3, 2 ch, 192 Кбит/с)
Размер: 3.83 ГБ
Продолжительность: 01:33:59
Перевод: Профессиональный (многоголосый, закадровый) CatBug TV
Субтитры: Русские, английские
General
Unique ID : 245637223276579710407936539782373107875 (0xB8CC0224F5820856AC776CBBE91AE8A3)
Complete name : E:Song.of.the.Sea.2014.720p.BluRay.x264.Rus.2xEng.ac3.NTb.0dayTeam.mkv
Format : Matroska
Format version : Version 4 / Version 2
File size : 3.83 GiB
Duration : 1h 33mn
Overall bit rate : 5 839 Kbps
Encoded date : UTC 2015-03-31 19:20:42
Writing application : mkvmerge v7.3.0 ('Nouages') 64bit built on Oct 22 2014 18:53:34
Writing library : libebml v1.3.0 + libmatroska v1.4.1
_STATISTICS_WRITING_APP : mkvmerge v7.3.0 ('Nouages') 64bit built on Oct 22 2014 18:53:34
_STATISTICS_WRITING_DATE_UTC : 2015-03-31 19:20:42
_STATISTICS_TAGS : BPS DURATION NUMBER_OF_FRAMES NUMBER_OF_BYTES
DURATION : 01:33:03.675000000
NUMBER_OF_FRAMES : 1118
NUMBER_OF_BYTES : 51414
Video
ID : 1
Format : AVC
Format/Info : Advanced Video Codec
Format profile : High@L4.1
Format settings, CABAC : Yes
Format settings, ReFrames : 9 frames
Codec ID : V_MPEG4/ISO/AVC
Duration : 1h 33mn
Bit rate : 4 251 Kbps
Width : 1 280 pixels
Height : 694 pixels
Display aspect ratio : 16:9
Frame rate : 23.976 fps
Color space : YUV
Chroma subsampling : 4:2:0
Bit depth : 8 bits
Scan type : Progressive
Bits/(Pixel*Frame) : 0.200
Stream size : 2.79 GiB (73%)
Writing library : x264 core 144 r0+2574 9abcd72 t_mod_Custom [8-bit@all X86_64]
Encoding settings : cabac=1 / ref=9 / deblock=1:-3:-3 / analyse=0x3:0x133 / me=umh / subme=10 / psy=1 / fade_compensate=0.00 / psy_rd=0.90:0.00 / mixed_ref=1 / me_range=48 / chroma_me=1 / trellis=2 / 8x8dct=1 / cqm=0 / deadzone=21,11 / fast_pskip=1 / chroma_qp_offset=-2 / threads=4 / lookahead_threads=1 / sliced_threads=0 / nr=0 / decimate=1 / interlaced=0 / bluray_compat=0 / constrained_intra=0 / fgo=0 / bframes=9 / b_pyramid=2 / b_adapt=2 / b_bias=0 / direct=3 / weightb=1 / open_gop=0 / weightp=2 / keyint=250 / keyint_min=23 / scenecut=40 / intra_refresh=0 / rc_lookahead=150 / rc=crf / mbtree=0 / crf=15.5000 / qcomp=0.65 / qpmin=0:0:0 / qpmax=69:69:69 / qpstep=4 / vbv_maxrate=50000 / vbv_bufsize=62500 / crf_max=0.0 / nal_hrd=none / filler=0 / ip_ratio=1.20 / pb_ratio=1.20 / aq=4:0.75 / aq-sensitivity=10.00 / aq-factor=1.00:1.00:1.00 / aq2=0 / aq3=0
Language : English
_STATISTICS_WRITING_APP : mkvmerge v7.3.0 ('Nouages') 64bit built on Oct 22 2014 18:53:34
_STATISTICS_WRITING_DATE_UTC : 2015-03-31 19:20:42
_STATISTICS_TAGS : BPS DURATION NUMBER_OF_FRAMES NUMBER_OF_BYTES
DURATION : 01:33:59.593000000
NUMBER_OF_FRAMES : 135215
NUMBER_OF_BYTES : 3076719183
Audio #1
ID : 2
Format : AC-3
Format/Info : Audio Coding 3
Mode extension : CM (complete main)
Codec ID : A_AC3
Duration : 1h 33mn
Bit rate mode : Constant
Bit rate : 640 Kbps
Channel(s) : 6 channels
Channel positions : Front: L C R, Side: L R, LFE
Sampling rate : 48.0 KHz
Bit depth : 16 bits
Compression mode : Lossy
Stream size : 430 MiB (11%)
Title : MVO - CatBug TV
Language : Russian
Audio #2
ID : 3
Format : AC-3
Format/Info : Audio Coding 3
Mode extension : CM (complete main)
Codec ID : A_AC3
Duration : 1h 33mn
Bit rate mode : Constant
Bit rate : 640 Kbps
Channel(s) : 6 channels
Channel positions : Front: L C R, Side: L R, LFE
Sampling rate : 48.0 KHz
Bit depth : 16 bits
Compression mode : Lossy
Stream size : 430 MiB (11%)
Language : English
Audio #3
ID : 4
Format : AC-3
Format/Info : Audio Coding 3
Mode extension : CM (complete main)
Codec ID : A_AC3
Duration : 1h 33mn
Bit rate mode : Constant
Bit rate : 192 Kbps
Channel(s) : 2 channels
Channel positions : Front: L R
Sampling rate : 48.0 KHz
Bit depth : 16 bits
Compression mode : Lossy
Stream size : 129 MiB (3%)
Title : Commentary with Director Tomm Moore
Language : English
Text #1
ID : 5
Format : UTF-8
Codec ID : S_TEXT/UTF8
Codec ID/Info : UTF-8 Plain Text
Language : Russian
Text #2
ID : 6
Format : UTF-8
Codec ID : S_TEXT/UTF8
Codec ID/Info : UTF-8 Plain Text
Title : SDH
Language : Russian
Text #3
ID : 7
Format : UTF-8
Codec ID : S_TEXT/UTF8
Codec ID/Info : UTF-8 Plain Text
Language : English
Text #4
ID : 8
Format : UTF-8
Codec ID : S_TEXT/UTF8
Codec ID/Info : UTF-8 Plain Text
Title : SDH
Language : English
Menu
00:00:00.000 : en:00:00:00.000
00:04:26.057 : en:00:04:26.057
00:09:28.943 : en:00:09:28.943
00:13:23.761 : en:00:13:23.761
00:18:49.587 : en:00:18:49.587
00:23:29.742 : en:00:23:29.742
00:26:30.339 : en:00:26:30.339
00:31:07.157 : en:00:31:07.157
00:35:10.400 : en:00:35:10.400
00:39:53.308 : en:00:39:53.308
00:44:19.115 : en:00:44:19.115
00:48:53.055 : en:00:48:53.055
00:52:21.347 : en:00:52:21.347
00:56:24.673 : en:00:56:24.673
00:59:58.094 : en:00:59:58.094
01:04:53.223 : en:01:04:53.223
01:08:52.462 : en:01:08:52.462
01:12:59.709 : en:01:12:59.709
01:17:48.289 : en:01:17:48.289
01:26:47.244 : en:01:26:47.244






   Похожие торренты   Торрент   Размер 
В этой теме нет новых непрочитанных сообщений. Песнь моря / Song of the Sea (2014) BDRip | A

29 | 4

2.05 ГБ

В этой теме нет новых непрочитанных сообщений. Песнь моря / Song of the Sea (2014) BDRip от HQCLUB | А, L

167 | 4

2.18 ГБ

В этой теме нет новых непрочитанных сообщений. Песнь моря / Song of the Sea (2014) BDRip 720p | Sub

275 | 15

2.65 ГБ

В этой теме нет новых непрочитанных сообщений. Песнь моря / Song of the Sea (2014) BDRip 1080 | P

243 | 15

7.61 ГБ

В этой теме нет новых непрочитанных сообщений. Песнь моря / Song of the Sea (2014) BDRip-AVC от MediaClub | D, A, L

203 | 11

2.78 ГБ

В этой теме нет новых непрочитанных сообщений. Песнь моря / Song of the Sea (2014) BDRip-AVC от MediaClub | A, L

152 | 14

2.52 ГБ

В этой теме нет новых непрочитанных сообщений. Песнь моря / Song of the Sea (2014) BDRip 1080p от HDClub | А, L

193 | 21

9.81 ГБ




Вы не можете начинать темы
Вы не можете отвечать на сообщения
Вы не можете редактировать свои сообщения
Вы не можете удалять свои сообщения
Вы не можете добавлять вложения

Перейти:  
Для Мосгорсуда, Роскомнадзора и рекламодателей: mosgorsud-torrent[собачка]yandex.ru
 Вход
ppkBB3cker v.2 © 2008-2014 @ PPK
[ Time : 0.030s | 15 Queries | GZIP : On ]
CGP output time : 0.024s | 5 Queries | GZIP : On

Торрент трекер RUTOR.IN, Не можете зайти на rutor.org? Какой новый адрес рутор? Какое зеркало рутор? Не работает rutor.org и зеркала? Тогда наш торрент специально для вас. Rutor.in неофициальное зеркало rutor. В случае если у Вас заблокирован rutor или вдруг Вы не можете на него зайти, то Вы без труда сможете скачать бесплатно и без рекламы последние новинки кино, игр, сериалов и прочего у нас, на Rutor.in. Не нужно использовать прокси, чтобы зайти на рутор, достаточно воспользоваться нашим ресурсом. Все новые фильмы, игры, сериалы, книги и музыка за 2013 и 2014 годы через торрент бесплатно. Скачивайте фильмы в хорошем качестве, игры для пк, xbox, playstation без регистрации. У нас вы найдете новые Зарубежные сериалы и Русские сериалы 2013, 2014, 2015 годов. Оставайтесь с нами, качайте любимые фильмы, игры, сериалы, книги и музыку.