img image001 image001 image001 image001 image001 image001 image001 image001 image001 image001 image001 image001 image001 image001 image001

Planets Sun Sun Sun
Статистика раздачи
Автор: Nickolas3434 | Размер: 1.05 ГБ | Добавлен: 02 апр 2015
Раздают: 66    Качают: 12
Скачать торрент
Скачать торрент
Описание торрента

СообщениеДобавлено: 02 апр 2015 

Информация о фильме:
● Название: Истории свинок
● Оригинальное название: Piggy Tales
● Год выхода: 2014
● Жанр: мультфильм, семейный, комедия
● Режиссер: Кристофер Сэдлер, Эркки Лиля, Сизар Шевалье, Вилле Лепистё...
● В ролях: Антти Пяккенен

Описание фильма:
Мультсериал по мотивам игр Bad Piggies и Angry Birds.
● Страна: Финляндия
● Студия: Rovio Entertainment
● Продолжительность: 00:38:59 (31 серия)
● Перевод: не требуется

Информация о файле:
● Кодек: AVC
● Формат: mp4
● Качество: WEBRip
● Видео: ~4000 kbps, 1280x720, 24.000 fps
● Аудио: AAC, 44,1 kHz, 2 ch, ~192 kbps

Семпл
01.Trampoline
02. Roughnecks
03. Abduction
04. Teeter-Trotter
05. The Hole
06. Push-Button
07. The Mirror
08. Super Glue
09. Piggy In The Middle
10. Epic Sir Bucket
11. Push-Button Trouble
12. Shazam
13. Puffed Up
14. Peekaboo!
15. Up Or Down
16. Gloves
17. Snooze
18. Super Pork
19. Cake Duel
20. Dr. Pork, M.D
21. Hog Hoops
22. The Cure
23. Up The Tempo
24. Jammed
25. Fly Piggy, Fly
26. The Game
27. The Catch
28. Snowed Up
29. The Wishing Well
30. Stuck In
31. It's a Wrap
Общее
Полное имя: D:MR_eng_seriesPiggy Tales. s01. 2014. WEBRip (1280x720)s01e01. Trampoline.mp4
Формат: MPEG-4
Профиль формата: Base Media
Идентификатор кодека: isom
Размер файла: 33,1 Мбайт
Продолжительность: 1 м. 6 с.
Режим общего битрейта: Переменный
Общий поток: 4199 Кбит/сек
Дата кодирования: UTC 2014-04-10 12:14:26
Дата пометки: UTC 2014-04-10 12:14:26
Программа кодирования: Lavf53.24.2
Видео
Идентификатор: 1
Формат: AVC
Формат/Информация: Advanced Video Codec
Профиль формата: Baseline @ L3.1
Параметр CABAC формата: Нет
Параметр ReFrames формата: 3 кадра
Идентификатор кодека: avc1
Идентификатор кодека/Информация: Advanced Video Coding
Продолжительность: 1 м. 6 с.
Битрейт: 4000 Кбит/сек
Ширина: 1280 пикселей
Высота: 720 пикселей
Соотношение сторон: 16:9
Режим частоты кадров: Постоянный
Частота кадров: 24,000 кадра/сек
Цветовое пространство: YUV
Субдискретизация насыщенности: 4:2:0
Битовая глубина: 8 бит
Тип развёртки: Прогрессивная
Бит/(Пиксели*Кадры): 0.181
Размер потока: 32,0 Мбайт (97%)
Библиотека кодирования: x264 core 118 r2085 8a62835
Настройки программы: cabac=0 / ref=3 / deblock=1:0:0 / analyse=0x1:0x111 / me=hex / subme=5 / psy=1 / psy_rd=1.00:0.00 / mixed_ref=1 / me_range=16 / chroma_me=1 / trellis=1 / 8x8dct=0 / cqm=0 / deadzone=21,11 / fast_pskip=1 / chroma_qp_offset=0 / threads=24 / sliced_threads=0 / nr=0 / decimate=1 / interlaced=0 / bluray_compat=0 / constrained_intra=0 / bframes=0 / weightp=0 / keyint=24 / keyint_min=13 / scenecut=40 / intra_refresh=0 / rc_lookahead=24 / rc=2pass / mbtree=1 / bitrate=4000 / ratetol=1.0 / qcomp=0.60 / qpmin=10 / qpmax=51 / qpstep=4 / cplxblur=20.0 / qblur=0.5 / ip_ratio=1.40 / aq=1:1.00
Язык: English
Дата кодирования: UTC 2014-04-10 12:14:26
Дата пометки: UTC 2014-04-10 12:14:26
Аудио
Идентификатор: 2
Формат: AAC
Формат/Информация: Advanced Audio Codec
Профиль формата: LC
Идентификатор кодека: 40
Продолжительность: 1 м. 6 с.
Вид битрейта: Переменный
Битрейт: 127 Кбит/сек
Максимальный битрейт: 128 Кбит/сек
Каналы: 2 канала
Расположение каналов: Front: L R
Частота: 44,1 КГц
Метод сжатия: С потерями
Размер потока: 1020 Кбайт (3%)
Язык: English
Дата кодирования: UTC 2014-04-10 12:14:26
Дата пометки: UTC 2014-04-10 12:14:26
Когда раздача ведётся путём добавления новых серий, при каждом добавлении создётся новый торрент. Чтобы начать докачку новой серии, пользователям необходимо сделать следующее:
(1) остановить скачивание,
(2) удалить старый торрент у себя из клиента (старые серии удалять не надо),
(3) скачать новый торрент и запустить его у себя в клиенте вместо старого, при этом указать клиенту путь в старую папку, куда и должно происходить скачивание новых серий.
Ваш клиент при этом должен произвести хеширование (проверку) старой папки (если не производит сам - помогите ему сделать это), и будет докачивать только те серии, которых у вас ещё нет. Старые серии при этом не удаляются, а продолжают раздаваться!
Eсли вы уже удалили старые серии, то предотвратить повторную закачку старых серий можно, отжав галочку в соответсвующих местах при запуске нового торрента. По возможности, желательно не удалять старые серии как можно дольше, чтобы релизёр не столько продолжал раздавать старые серии, а смог сконцентрироваться на новых.



   Похожие торренты   Торрент   Размер 
В этой теме нет новых непрочитанных сообщений. Истории свинок / Piggy Tales [01х01-31] (2014) WEBRip

239 | 15

433.19 МБ

В этой теме нет новых непрочитанных сообщений. Свинки на работе / Piggy Tales: Pigs At Work [01х01-14] (2015) WEBRip 720p

0 | 5

415.51 МБ

В этой теме нет новых непрочитанных сообщений. Свинки на работе / Piggy Tales: Pigs At Work [01х01-16] (2015) WEBRip 720p

142 | 9

444.61 МБ

В этой теме нет новых непрочитанных сообщений. Свинки на работе / Piggy Tales: Pigs At Work [01х01-13] (2015) WEBRip 720p

279 | 14

398.13 МБ

В этой теме нет новых непрочитанных сообщений. Свинки на работе / Piggy Tales: Pigs At Work [01х01-15] (2015) WEBRip 720p

77 | 7

429.02 МБ

В этой теме нет новых непрочитанных сообщений. Свинки на работе / Piggy Tales: Pigs At Work [01х01-11] (2015) WEBRip 720p

142 | 8

346.67 МБ

В этой теме нет новых непрочитанных сообщений. Свинки на работе / Piggy Tales: Pigs At Work [01х01-20] (2015) WEBRip 720p

77 | 6

504.97 МБ




Вы не можете начинать темы
Вы не можете отвечать на сообщения
Вы не можете редактировать свои сообщения
Вы не можете удалять свои сообщения
Вы не можете добавлять вложения

Перейти:  
Для Мосгорсуда, Роскомнадзора и рекламодателей: mosgorsud-torrent[собачка]yandex.ru
 Вход
ppkBB3cker v.2 © 2008-2014 @ PPK
[ Time : 0.042s | 15 Queries | GZIP : Off ]

Торрент трекер RUTOR.IN, Не можете зайти на rutor.org? Какой новый адрес рутор? Какое зеркало рутор? Не работает rutor.org и зеркала? Тогда наш торрент специально для вас. Rutor.in неофициальное зеркало rutor. В случае если у Вас заблокирован rutor или вдруг Вы не можете на него зайти, то Вы без труда сможете скачать бесплатно и без рекламы последние новинки кино, игр, сериалов и прочего у нас, на Rutor.in. Не нужно использовать прокси, чтобы зайти на рутор, достаточно воспользоваться нашим ресурсом. Все новые фильмы, игры, сериалы, книги и музыка за 2013 и 2014 годы через торрент бесплатно. Скачивайте фильмы в хорошем качестве, игры для пк, xbox, playstation без регистрации. У нас вы найдете новые Зарубежные сериалы и Русские сериалы 2013, 2014, 2015 годов. Оставайтесь с нами, качайте любимые фильмы, игры, сериалы, книги и музыку.