img image001 image001 image001 image001 image001 image001 image001 image001 image001 image001 image001 image001 image001 image001 image001

Planets Sun Sun Sun
Статистика раздачи
Автор: Nickolas3434 | Размер: 2.18 ГБ | Добавлен: 03 апр 2015
Раздают: 55    Качают: 14
Скачать торрент
Скачать торрент
Описание торрента

СообщениеДобавлено: 03 апр 2015 

Информация о фильме
Название: Астробой
Оригинальное название: Astro Boy
Год выхода: 2009
Жанр: фантастика, семейный, мультфильм
Режиссер: Дэвид Бауэрс
В ролях: Кристен Белл, Николас Кейдж, Сэмюэл Л. Джексон, Шарлиз Терон , Дональд Сазерленд
О фильме:
В космическом мегаполисе Метро живет гениальный ученый доктор Тенма. Оплакивая своего погибшего сына, он создает Астробоя, мальчика-робота, наделенного самыми лучшими человеческими качествами и сверхъестественными способностями супер-героя. Но каково же было разочарование Астробоя, когда он узнал, что он… не настоящий человек. В это время Астробой попадает в поле зрения преступных военных кругов, которые хотят использовать силу маленького робота для захвата Земли…

Страна: США, Япония, Гонконг
Продолжительность: 01:29:54
Перевод: Профессиональный (полное дублирование)
Файл
Кодек: h264
Качество: BDRip 720 от SuperMin
Видео: 1280x544 (2.35:1), 2875 kbps, 23.976 fps
Звук: Русский (AC-3, 6ch, 448 kbps)
x264 [info]: frame I:1512 Avg QP:12.47 size:128807
x264 [info]: frame P:40873 Avg QP:16.09 size: 28339
x264 [info]: frame B:92567 Avg QP:20.52 size: 7216
x264 [info]: consecutive B-frames: 7.5% 8.5% 12.5% 37.9% 13.9% 16.3% 3.4%

Video
ID : 1
Format : AVC
Format/Info : Advanced Video Codec
Format profile : High@L4.1
Format settings, CABAC : Yes
Format settings, ReFrames : 9 frames
Codec ID : V_MPEG4/ISO/AVC
Duration : 1h 33mn
Bit rate : 2 875 Kbps
Width : 1 280 pixels
Height : 544 pixels
Display aspect ratio : 2.35:1
Frame rate mode : Constant
Frame rate : 23.976 fps
Color space : YUV
Chroma subsampling : 4:2:0
Bit depth : 8 bits
Scan type : Progressive
Bits/(Pixel*Frame) : 0.172
Stream size : 1.84 GiB (85%)
Writing library : x264 core 144 r2525 40bb568
Encoding settings : cabac=1 / ref=9 / deblock=1:0:0 / analyse=0x3:0x113 / me=umh / subme=9 / psy=1 / psy_rd=1.00:0.10 / mixed_ref=1 / me_range=32 / chroma_me=1 / trellis=2 / 8x8dct=1 / cqm=0 / deadzone=21,11 / fast_pskip=0 / chroma_qp_offset=-3 / threads=3 / lookahead_threads=1 / sliced_threads=0 / nr=0 / decimate=1 / interlaced=0 / bluray_compat=0 / constrained_intra=0 / bframes=6 / b_pyramid=2 / b_adapt=2 / b_bias=0 / direct=3 / weightb=1 / open_gop=0 / weightp=2 / keyint=240 / keyint_min=23 / scenecut=40 / intra_refresh=0 / rc_lookahead=60 / rc=2pass / mbtree=1 / bitrate=2875 / ratetol=1.0 / qcomp=0.60 / qpmin=0 / qpmax=69 / qpstep=4 / cplxblur=20.0 / qblur=0.5 / vbv_maxrate=14000 / vbv_bufsize=14000 / nal_hrd=none / filler=0 / ip_ratio=1.40 / aq=1:0.80
Default : Yes
Forced : No
Audio
ID : 2
Format : AC-3
Format/Info : Audio Coding 3
Mode extension : CM (complete main)
Format settings, Endianness : Big
Codec ID : A_AC3
Duration : 1h 33mn
Bit rate mode : Constant
Bit rate : 448 Kbps
Channel(s) : 6 channels
Channel positions : Front: L C R, Side: L R, LFE
Sampling rate : 48.0 KHz
Bit depth : 16 bits
Compression mode : Lossy
Stream size : 301 MiB (13%)
Language : Russian
Default : Yes
Forced : No


Релиз от: SuperMin



   Похожие торренты   Торрент   Размер 
В этой теме нет новых непрочитанных сообщений. Астробой / Astro Boy (2009) BDRip by VIDEODB

1 | 4

1.75 ГБ

В этой теме нет новых непрочитанных сообщений. Астробой / Astro Boy (2009) BDRip от HQCLUB

10 | 63

1.75 ГБ

В этой теме нет новых непрочитанных сообщений. Астробой / Astro Boy (2009) BDRip 720p

3 | 3

3.62 ГБ

В этой теме нет новых непрочитанных сообщений. Астробой / Astro Boy (2009) BDRip 1080p

1 | 4

7.51 ГБ

В этой теме нет новых непрочитанных сообщений. Астробой / Astro Boy (2009) BDRip 1080p

21 | 4

4.37 ГБ

В этой теме нет новых непрочитанных сообщений. Астробой / Astro Boy (2009) BDRip от HQ-ViDEO

321 | 8

1.46 ГБ

В этой теме нет новых непрочитанных сообщений. Астробой / Astro Boy (2009) BDRip*Proper от HELLYWOOD

12 | 7

1.75 ГБ




Вы не можете начинать темы
Вы не можете отвечать на сообщения
Вы не можете редактировать свои сообщения
Вы не можете удалять свои сообщения
Вы не можете добавлять вложения

Перейти:  
Для Мосгорсуда, Роскомнадзора и рекламодателей: mosgorsud-torrent[собачка]yandex.ru
 Вход
ppkBB3cker v.2 © 2008-2014 @ PPK
[ Time : 0.916s | 16 Queries | GZIP : On ]

Торрент трекер RUTOR.IN, Не можете зайти на rutor.org? Какой новый адрес рутор? Какое зеркало рутор? Не работает rutor.org и зеркала? Тогда наш торрент специально для вас. Rutor.in неофициальное зеркало rutor. В случае если у Вас заблокирован rutor или вдруг Вы не можете на него зайти, то Вы без труда сможете скачать бесплатно и без рекламы последние новинки кино, игр, сериалов и прочего у нас, на Rutor.in. Не нужно использовать прокси, чтобы зайти на рутор, достаточно воспользоваться нашим ресурсом. Все новые фильмы, игры, сериалы, книги и музыка за 2013 и 2014 годы через торрент бесплатно. Скачивайте фильмы в хорошем качестве, игры для пк, xbox, playstation без регистрации. У нас вы найдете новые Зарубежные сериалы и Русские сериалы 2013, 2014, 2015 годов. Оставайтесь с нами, качайте любимые фильмы, игры, сериалы, книги и музыку.
cron