img image001 image001 image001 image001 image001 image001 image001 image001 image001 image001 image001 image001 image001 image001 image001

Planets Sun Sun Sun
Статистика раздачи
Автор: Nickolas3434 | Размер: 7.76 ГБ | Добавлен: 03 апр 2015
Раздают: 116    Качают: 7
Скачать торрент
Скачать торрент
Описание торрента

СообщениеДобавлено: 03 апр 2015 

Информация о фильме
Название: Книга жизни
Оригинальное название: The Book of Life
Год выхода: 2014
Жанр: Мультфильм, фэнтези, мелодрама, комедия, приключения, семейный
Режиссер: Хорхе Р. Гутьеррес
В ролях: Диего Луна, Зои Салдана, Ченнинг Татум, Рон Перлман, Кристина Эпплгейт, Айс Кьюб, Кейт дель Кастильо, Гектор Элизондо, Дэнни Трехо, Карлос Аласраки
О фильме:
В мультфильме описывается романтическая история любви на фоне празднования Дня мертвых в Мексике.

Выпущено: Twentieth Century Fox, Reel FX Creative Studios, Chatrone
Продолжительность: 01:35:25
Перевод: Дублированный |iTunes Russia| + Любительский (двухголосый закадровый) Студия Пиратского Дубляжа + Украинский дублированный |iTunes Russia| + Оригинал
Файл
Кодек: x264
Качество: BDRip 1080p (источник: HDCLUB / Blu-ray Remux / 1080p)
Видео: 1920х804 (2.40:1), 10040 Kbps, 23.976 fps, 0.271 bit/pixel
Аудио #1: 48.0 kHz, AC3 Dolby Digital, 3/2 (L,C,R,l,r) + LFE ch, 384 kbps [Дубляж, iTunes Russia]
Аудио #2: 48.0 kHz, AC3 Dolby Digital, 3/2 (L,C,R,l,r) + LFE ch, 384 kbps [Двухголосый, Студия Пиратского Дубляжа]
Аудио #3: 48.0 kHz, AC3 Dolby Digital, 2/0 (L,R) ch, 192 kbps [Украинский дубляж, iTunes Russia]
Аудио #4: 48.0 kHz, AC3 Dolby Digital, 3/2 (L,C,R,l,r) + LFE ch, 640 kbps [Оригинал, Английский]
Субтитры: Русские [форсированные, полные], украинские [полные], английские [полные, SDH]
Семпл

3 full pass
x264 [info]: frame I:1771 Avg QP:14.19 size:305624
x264 [info]: frame P:37666 Avg QP:16.77 size: 96050
x264 [info]: frame B:97819 Avg QP:18.34 size: 30913
General
Unique ID : 209825091844943712910645961704124181339 (0x9DDAD7BE410FD50C9C43255F3A4BEB5B)
Complete name : E:The.Book.of.Life.2014.x264.BDRip.1080p.mkv
Format : Matroska
Format version : Version 2
File size : 7.76 GiB
Duration : 1h 35mn
Overall bit rate : 11.6 Mbps
Encoded date : UTC 2015-04-02 06:29:09
Writing application : mkvmerge v5.8.0 ('No Sleep / Pillow') built on Sep 2 2012 15:37:04
Writing library : libebml v1.2.3 + libmatroska v1.3.0
Video
ID : 1
Format : AVC
Format/Info : Advanced Video Codec
Format profile : High@L4.1
Format settings, CABAC : Yes
Format settings, ReFrames : 5 frames
Codec ID : V_MPEG4/ISO/AVC
Duration : 1h 35mn
Bit rate : 10.0 Mbps
Width : 1 920 pixels
Height : 804 pixels
Display aspect ratio : 2.40:1
Frame rate mode : Constant
Frame rate : 23.976 fps
Color space : YUV
Chroma subsampling : 4:2:0
Bit depth : 8 bits
Scan type : Progressive
Bits/(Pixel*Frame) : 0.271
Stream size : 6.54 GiB (84%)
Writing library : x264 core 146 r2538 121396c
Encoding settings : cabac=1 / ref=5 / deblock=1:-3:-3 / analyse=0x3:0x133 / me=tesa / subme=11 / psy=1 / psy_rd=1.00:0.00 / mixed_ref=1 / me_range=32 / chroma_me=1 / trellis=2 / 8x8dct=1 / cqm=0 / deadzone=21,11 / fast_pskip=0 / chroma_qp_offset=-2 / threads=12 / lookahead_threads=1 / sliced_threads=0 / nr=0 / decimate=0 / interlaced=0 / bluray_compat=0 / constrained_intra=0 / bframes=6 / b_pyramid=2 / b_adapt=2 / b_bias=0 / direct=3 / weightb=1 / open_gop=0 / weightp=2 / keyint=240 / keyint_min=23 / scenecut=40 / intra_refresh=0 / rc=2pass / mbtree=0 / bitrate=10040 / ratetol=1.0 / qcomp=0.60 / qpmin=0 / qpmax=69 / qpstep=4 / cplxblur=20.0 / qblur=0.5 / ip_ratio=1.40 / pb_ratio=1.30 / aq=1:1.00
Language : English
Default : Yes
Forced : No
Audio #1
ID : 2
Format : AC-3
Format/Info : Audio Coding 3
Mode extension : CM (complete main)
Format settings, Endianness : Big
Codec ID : A_AC3
Duration : 1h 35mn
Bit rate mode : Constant
Bit rate : 384 Kbps
Channel(s) : 6 channels
Channel positions : Front: L C R, Side: L R, LFE
Sampling rate : 48.0 KHz
Bit depth : 16 bits
Compression mode : Lossy
Stream size : 262 MiB (3%)
Title : Дубляж, iTunes Russia
Language : Russian
Default : Yes
Forced : No
Audio #2
ID : 3
Format : AC-3
Format/Info : Audio Coding 3
Mode extension : CM (complete main)
Format settings, Endianness : Big
Codec ID : A_AC3
Duration : 1h 35mn
Bit rate mode : Constant
Bit rate : 384 Kbps
Channel(s) : 6 channels
Channel positions : Front: L C R, Side: L R, LFE
Sampling rate : 48.0 KHz
Bit depth : 16 bits
Compression mode : Lossy
Stream size : 262 MiB (3%)
Title : Двухголосый, Студия Пиратского Дубляжа
Language : Russian
Default : No
Forced : No
Audio #3
ID : 4
Format : AC-3
Format/Info : Audio Coding 3
Mode extension : CM (complete main)
Format settings, Endianness : Big
Codec ID : A_AC3
Duration : 1h 35mn
Bit rate mode : Constant
Bit rate : 192 Kbps
Channel(s) : 2 channels
Channel positions : Front: L R
Sampling rate : 48.0 KHz
Bit depth : 16 bits
Compression mode : Lossy
Stream size : 131 MiB (2%)
Title : Украинский дубляж, iTunes Russia
Language : Ukrainian
Default : No
Forced : No
Audio #4
ID : 5
Format : AC-3
Format/Info : Audio Coding 3
Mode extension : CM (complete main)
Format settings, Endianness : Big
Codec ID : A_AC3
Duration : 1h 35mn
Bit rate mode : Constant
Bit rate : 640 Kbps
Channel(s) : 6 channels
Channel positions : Front: L C R, Side: L R, LFE
Sampling rate : 48.0 KHz
Bit depth : 16 bits
Compression mode : Lossy
Stream size : 437 MiB (6%)
Title : Оригинал, Английский
Language : English
Default : No
Forced : No
Text #1
ID : 6
Format : UTF-8
Codec ID : S_TEXT/UTF8
Codec ID/Info : UTF-8 Plain Text
Title : Русские [форсированные]
Language : Russian
Default : Yes
Forced : No
Text #2
ID : 7
Format : UTF-8
Codec ID : S_TEXT/UTF8
Codec ID/Info : UTF-8 Plain Text
Title : Русские [полные]
Language : Russian
Default : No
Forced : No
Text #3
ID : 8
Format : UTF-8
Codec ID : S_TEXT/UTF8
Codec ID/Info : UTF-8 Plain Text
Title : Украинские [полные]
Language : Ukrainian
Default : No
Forced : No
Text #4
ID : 9
Format : UTF-8
Codec ID : S_TEXT/UTF8
Codec ID/Info : UTF-8 Plain Text
Title : Английские [полные]
Language : English
Default : No
Forced : No
Text #5
ID : 10
Format : UTF-8
Codec ID : S_TEXT/UTF8
Codec ID/Info : UTF-8 Plain Text
Title : Английские [SDH]
Language : English
Default : No
Forced : No
Menu
00:00:00.000 : en:
00:02:58.050 : en:
00:05:39.629 : en:
00:08:35.014 : en:
00:12:08.476 : en:
00:15:07.697 : en:
00:19:24.246 : en:
00:22:20.087 : en:
00:26:08.148 : en:
00:28:59.570 : en:
00:33:02.145 : en:
00:37:25.952 : en:
00:41:07.087 : en:
00:43:14.631 : en:
00:47:02.484 : en:
00:50:53.050 : en:
00:53:13.230 : en:
00:56:30.219 : en:
01:00:16.278 : en:
01:03:57.791 : en:
01:06:48.378 : en:
01:09:09.895 : en:
01:11:52.015 : en:
01:15:53.215 : en:
01:18:52.769 : en:
01:21:13.408 : en:
01:23:33.841 : en:
01:27:11.893 : en:



   Похожие торренты   Торрент   Размер 
В этой теме нет новых непрочитанных сообщений. Книга жизни / The Book of Life (2014) BDRip 1080p от HDClub | Лицензия

57 | 4

10.14 ГБ

В этой теме нет новых непрочитанных сообщений. Книга жизни / The Book of Life (2014) BDRip 1080p от HDClub | Лицензия

101 | 8

10.07 ГБ

В этой теме нет новых непрочитанных сообщений. Книга жизни / The Book of Life (2014) BDRip 1080p от Leonardo and Scarabey | iTunes

122 | 4

6.25 ГБ

В этой теме нет новых непрочитанных сообщений. Книга жизни / The Book of Life (2014) BDRip 1080p от Ash61 | 3D-Video | halfOU | L

497 | 69

7.76 ГБ

В этой теме нет новых непрочитанных сообщений. Книга жизни / The Book of Life (2014) BDRip 1080p от Leonardo and Scarabey | iTunes

212 | 11

6.29 ГБ

В этой теме нет новых непрочитанных сообщений. Книга жизни / The Book of Life (2014) BDRip 1080p от Ash61 | 3D-Video | halfOU | iTunes

638 | 141

7.92 ГБ

В этой теме нет новых непрочитанных сообщений. Книга жизни / The Book of Life (2014) Bly-ray EUR 1080p от HDCLUB | Лицензия

3 | 1

38 ГБ




Вы не можете начинать темы
Вы не можете отвечать на сообщения
Вы не можете редактировать свои сообщения
Вы не можете удалять свои сообщения
Вы не можете добавлять вложения

Перейти:  
Для Мосгорсуда, Роскомнадзора и рекламодателей: mosgorsud-torrent[собачка]yandex.ru
 Вход
ppkBB3cker v.2 © 2008-2014 @ PPK
[ Time : 66.697s | 17 Queries | GZIP : Off ]
CGP output time : 0.033s | 5 Queries | GZIP : Off

Торрент трекер RUTOR.IN, Не можете зайти на rutor.org? Какой новый адрес рутор? Какое зеркало рутор? Не работает rutor.org и зеркала? Тогда наш торрент специально для вас. Rutor.in неофициальное зеркало rutor. В случае если у Вас заблокирован rutor или вдруг Вы не можете на него зайти, то Вы без труда сможете скачать бесплатно и без рекламы последние новинки кино, игр, сериалов и прочего у нас, на Rutor.in. Не нужно использовать прокси, чтобы зайти на рутор, достаточно воспользоваться нашим ресурсом. Все новые фильмы, игры, сериалы, книги и музыка за 2013 и 2014 годы через торрент бесплатно. Скачивайте фильмы в хорошем качестве, игры для пк, xbox, playstation без регистрации. У нас вы найдете новые Зарубежные сериалы и Русские сериалы 2013, 2014, 2015 годов. Оставайтесь с нами, качайте любимые фильмы, игры, сериалы, книги и музыку.