img image001 image001 image001 image001 image001 image001 image001 image001 image001 image001 image001 image001 image001 image001 image001

Planets Sun Sun Sun
Статистика раздачи
Автор: Nickolas3434 | Размер: 2.33 ГБ | Добавлен: 03 апр 2015
Раздают: 110    Качают: 7
Скачать торрент
Скачать торрент
Описание торрента

СообщениеДобавлено: 03 апр 2015 

Информация о фильме
Название: Книга жизни
Оригинальное название: The Book of Life
Год выхода: 2014
Жанр: Мультфильм, фэнтези, мелодрама, комедия, приключения, семейный
Режиссер: Хорхе Р. Гутьеррес
В ролях: Диего Луна, Зои Салдана, Ченнинг Татум, Рон Перлман, Кристина Эпплгейт, Айс Кьюб, Кейт дель Кастильо, Гектор Элизондо, Дэнни Трехо, Карлос Аласраки
О фильме:
В мультфильме описывается романтическая история любви на фоне празднования Дня мертвых в Мексике.

Официальный сайт
Выпущено: США / Chatrone, Reel FX Creative Studios, Twentieth Century Fox
Продолжительность: 01:35:25
Перевод: Дублированный (iTunes Russia)
Файл
Формат: MKV
Качество: BDRip-AVC
Видео: MPEG-4 AVC, 2407 Кбит/с, 1024x428
Аудио: Русский (AC3, 6 ch, 384 Кбит/с), украинский (AAC, 2 ch, 192 Кбит/с), английский (AC3, 6 ch, 448 Кбит/с)
Субтитры: Русские, украинские, английские
Семпл
Общее
Уникальный идентификатор : 202490409064451052314115005500330219219 (0x98563BF64A5DC4DD9236EE52168E16D3)
Полное имя : F:HD РаздачиKniga. Zhyzni.2014.BDRip-AVC.by.grab777.mkv
Формат : Matroska
Версия формата : Version 2
Размер файла : 2,33 Гбайт
Продолжительность : 1 ч. 35 м.
Общий поток : 3501 Кбит/сек
Название фильма : Книга жизни / The Book of Life (2014) BDRip-AVC.by.grab777
Дата кодирования : UTC 2015-04-02 09:40:12
Программа кодирования : mkvmerge v5.8.0 ('No Sleep / Pillow') built on Sep 2 2012 15:37:04
Библиотека кодирования : libebml v1.2.3 + libmatroska v1.3.0
Видео
Идентификатор : 1
Формат : AVC
Формат/Информация : Advanced Video Codec
Профиль формата : High@L4.1
Параметр CABAC формата : Да
Параметр ReFrames формата : 10 кадров
Идентификатор кодека : V_MPEG4/ISO/AVC
Продолжительность : 1 ч. 35 м.
Битрейт : 2407 Кбит/сек
Номинальный битрейт : 2750 Кбит/сек
Ширина : 1024 пикселя
Высота : 428 пикселей
Соотношение сторон : 2,40:1
Режим частоты кадров : Постоянный
Частота кадров : 23,976 кадра/сек
Цветовое пространство : YUV
Субдискретизация насыщенности : 4:2:0
Битовая глубина : 8 бит
Тип развёртки : Прогрессивная
Бит/(Пиксели*Кадры) : 0.229
Размер потока : 1,61 Гбайт (69%)
Заголовок : by.grab777
Библиотека кодирования : x264 core 125 r2208 d9d2288
Настройки программы : cabac=1 / ref=10 / deblock=1:-3:-3 / analyse=0x3:0x133 / me=umh / subme=11 / psy=1 / psy_rd=1.00:0.25 / mixed_ref=1 / me_range=48 / chroma_me=1 / trellis=2 / 8x8dct=1 / cqm=0 / deadzone=21,11 / fast_pskip=0 / chroma_qp_offset=-4 / threads=12 / lookahead_threads=2 / sliced_threads=0 / nr=0 / decimate=1 / interlaced=0 / bluray_compat=0 / constrained_intra=0 / bframes=8 / b_pyramid=2 / b_adapt=2 / b_bias=0 / direct=3 / weightb=1 / open_gop=0 / weightp=2 / keyint=240 / keyint_min=23 / scenecut=40 / intra_refresh=0 / rc=2pass / mbtree=0 / bitrate=2750 / ratetol=1.0 / qcomp=0.60 / qpmin=0 / qpmax=69 / qpstep=4 / cplxblur=20.0 / qblur=0.5 / ip_ratio=1.40 / pb_ratio=1.30 / aq=1:1.00
Язык : English
Default : Да
Forced : Нет
Аудио #1
Идентификатор : 2
Формат : AC-3
Формат/Информация : Audio Coding 3
Расширение режима : CM (complete main)
Параметр Endianness формата : Big
Идентификатор кодека : A_AC3
Продолжительность : 1 ч. 35 м.
Вид битрейта : Постоянный
Битрейт : 384 Кбит/сек
Каналы : 6 каналов
Расположение каналов : Front: L C R, Side: L R, LFE
Частота : 48,0 КГц
Битовая глубина : 16 бит
Метод сжатия : С потерями
Размер потока : 262 Мбайт (11%)
Заголовок : DUB (iTunes)
Язык : Russian
Default : Да
Forced : Нет
Аудио #2
Идентификатор : 3
Формат : AC-3
Формат/Информация : Audio Coding 3
Расширение режима : CM (complete main)
Параметр Endianness формата : Big
Идентификатор кодека : A_AC3
Продолжительность : 1 ч. 35 м.
Вид битрейта : Постоянный
Битрейт : 192 Кбит/сек
Каналы : 2 канала
Расположение каналов : Front: L R
Частота : 48,0 КГц
Битовая глубина : 16 бит
Метод сжатия : С потерями
Размер потока : 131 Мбайт (5%)
Заголовок : UKR DUB (iTunes)
Язык : Ukrainian
Default : Нет
Forced : Нет
Аудио #3
Идентификатор : 4
Формат : AC-3
Формат/Информация : Audio Coding 3
Расширение режима : CM (complete main)
Параметр Endianness формата : Big
Идентификатор кодека : A_AC3
Продолжительность : 1 ч. 35 м.
Вид битрейта : Постоянный
Битрейт : 448 Кбит/сек
Каналы : 6 каналов
Расположение каналов : Front: L C R, Side: L R, LFE
Частота : 48,0 КГц
Битовая глубина : 16 бит
Метод сжатия : С потерями
Размер потока : 306 Мбайт (13%)
Заголовок : Original
Язык : English
Default : Нет
Forced : Нет
Текст #1
Идентификатор : 5
Формат : UTF-8
Идентификатор кодека : S_TEXT/UTF8
Идентификатор кодека/Информация : UTF-8 Plain Text
Заголовок : Русские [форсированные]
Язык : Russian
Default : Да
Forced : Нет
Текст #2
Идентификатор : 6
Формат : UTF-8
Идентификатор кодека : S_TEXT/UTF8
Идентификатор кодека/Информация : UTF-8 Plain Text
Заголовок : Русские [полные]
Язык : Russian
Default : Нет
Forced : Нет
Текст #3
Идентификатор : 7
Формат : UTF-8
Идентификатор кодека : S_TEXT/UTF8
Идентификатор кодека/Информация : UTF-8 Plain Text
Заголовок : Украинские [полные]
Язык : Ukrainian
Default : Нет
Forced : Нет
Текст #4
Идентификатор : 8
Формат : UTF-8
Идентификатор кодека : S_TEXT/UTF8
Идентификатор кодека/Информация : UTF-8 Plain Text
Заголовок : Английские [полные]
Язык : English
Default : Нет
Forced : Нет
Текст #5
Идентификатор : 9
Формат : UTF-8
Идентификатор кодека : S_TEXT/UTF8
Идентификатор кодека/Информация : UTF-8 Plain Text
Заголовок : Английские [SDH]
Язык : English
Default : Нет
Forced : Нет
Меню
00:00:00.000 : en:
00:02:58.050 : en:
00:05:39.629 : en:
00:08:35.014 : en:
00:12:08.476 : en:
00:15:07.697 : en:
00:19:24.246 : en:
00:22:20.087 : en:
00:26:08.148 : en:
00:28:59.570 : en:
00:33:02.145 : en:
00:37:25.952 : en:
00:41:07.087 : en:
00:43:14.631 : en:
00:47:02.484 : en:
00:50:53.050 : en:
00:53:13.230 : en:
00:56:30.219 : en:
01:00:16.278 : en:
01:03:57.791 : en:
01:06:48.378 : en:
01:09:09.895 : en:
01:11:52.015 : en:
01:15:53.215 : en:
01:18:52.769 : en:
01:21:13.408 : en:
01:23:33.841 : en:
01:27:11.893 : en:
Золотой глобус, 2015 год
Номинации (1):
Лучший анимационный фильм
Аудио #1: Русский (AC3, 6 ch, 384 Кбит/с) Дублированный (iTunes Russia)
Аудио #3: Украинский (AC3, 2 ch, 192 Кбит/с) Дублированный (iTunes Russia)

Релиз от:



   Похожие торренты   Торрент   Размер 
В этой теме нет новых непрочитанных сообщений. Книга жизни / The Book of Life (2014) BDRip от Twi7ter | D | iTunes

2287 | 117

1.42 ГБ

В этой теме нет новых непрочитанных сообщений. Книга жизни / The Book of Life (2014) BDRip от Deadmauvlad | D | iTunes Russia

349 | 19

2.05 ГБ

В этой теме нет новых непрочитанных сообщений. Книга жизни / The Book of Life (2014) BDRip 1080p от Leonardo and Scarabey | iTunes

212 | 11

6.29 ГБ

В этой теме нет новых непрочитанных сообщений. Книга жизни / The Book of Life (2014) BDRip 720p от Leonardo and Scarabey | iTunes

49 | 2

3.45 ГБ

В этой теме нет новых непрочитанных сообщений. Книга жизни / The Book of Life (2014) BDRip 1080p от Leonardo and Scarabey | iTunes

122 | 4

6.25 ГБ

В этой теме нет новых непрочитанных сообщений. Книга жизни / The Book of Life (2014) BDRip 720p от Leonardo and Scarabey | iTunes

580 | 20

3.5 ГБ

В этой теме нет новых непрочитанных сообщений. Книга жизни / The Book of Life (2014) BDRip 1080p от Ash61 | 3D-Video | halfOU | iTunes

638 | 141

7.92 ГБ




Вы не можете начинать темы
Вы не можете отвечать на сообщения
Вы не можете редактировать свои сообщения
Вы не можете удалять свои сообщения
Вы не можете добавлять вложения

Перейти:  
Для Мосгорсуда, Роскомнадзора и рекламодателей: mosgorsud-torrent[собачка]yandex.ru
 Вход
ppkBB3cker v.2 © 2008-2014 @ PPK
[ Time : 0.029s | 15 Queries | GZIP : On ]

Торрент трекер RUTOR.IN, Не можете зайти на rutor.org? Какой новый адрес рутор? Какое зеркало рутор? Не работает rutor.org и зеркала? Тогда наш торрент специально для вас. Rutor.in неофициальное зеркало rutor. В случае если у Вас заблокирован rutor или вдруг Вы не можете на него зайти, то Вы без труда сможете скачать бесплатно и без рекламы последние новинки кино, игр, сериалов и прочего у нас, на Rutor.in. Не нужно использовать прокси, чтобы зайти на рутор, достаточно воспользоваться нашим ресурсом. Все новые фильмы, игры, сериалы, книги и музыка за 2013 и 2014 годы через торрент бесплатно. Скачивайте фильмы в хорошем качестве, игры для пк, xbox, playstation без регистрации. У нас вы найдете новые Зарубежные сериалы и Русские сериалы 2013, 2014, 2015 годов. Оставайтесь с нами, качайте любимые фильмы, игры, сериалы, книги и музыку.