img image001 image001 image001 image001 image001 image001 image001 image001 image001 image001 image001 image001 image001 image001 image001

Planets Sun Sun Sun
Статистика раздачи
Автор: Nickolas3434 | Размер: 128.27 МБ | Добавлен: 05 апр 2015
Раздают: 593    Качают: 19
Скачать торрент
Скачать торрент
Описание торрента

СообщениеДобавлено: 05 апр 2015 

Информация о фильме
Оригинальное название: Маша и медведь. Дорогая передача
Год выхода: 2015
Жанр: Мультсериал, компьютерная анимация, сказка, детский, семейный
Режиссер: Олег Кузовков, Владислав Байрамгулов, Наталья Мальгина
О фильме: Мультсериал про девочку Машу, которая никому не дает покоя, и в первую очередь - своему другу Медведю. Мультик добрый, веселый, а по качеству намного опережает многие отечественные 3D-мультфильмы, да и некоторые западные 3D мультсериалы. Сериал рассчитан в первую очередь на детскую аудиторию (от 3 до 9 лет), и поэтому форма изложения материала будет адаптирована для детского восприятия, но не будет чрезмерно упрощенной. Сериал планируется действительно семейным, интересным для всех возрастов, чтобы взрослые могли посмеяться над приключениями Маши и Медведя, вспомнив собственное детство. Несмотря на то, что персонажи для зрителя являются знакомыми с детства по русской народной сказке, предполагается некоторая адаптация зрительского восприятия к новой трактовке старой истории - персонажи живут в наше время, их быт, хоть и абсурден, но современен, их отношения - это отношения не девочки и зверя, а ребенка и взрослого, маленького человечка и огромного мира.
Страна: Россия
Продолжительность: 00:06:55
Перевод: Не требуется
Дата релиза: 04.04.15
Файл
Кодек: H264
Качество: WEB-DLRip (AVC)
Видео: MPEG-4 AVC, 2400 Kбит/с, 1024x576, 24.000 кадр/с
Звук: AC3, 2 ch, 192 Кбит/с
Общее
Уникальный идентификатор : 246258295648569957085504529933925061605 (0xB9439F606050AFCABA3C925EEB7B93E5)
Полное имя : D:ВидеоMasha & medved - Dorogaya peredacha (seriya 49) by Vovan366(ExKinoRay).mkv
Формат : Matroska
Версия формата : Version 2
Размер файла : 128 Мбайт
Продолжительность : 6 м. 55 с.
Общий поток : 2591 Кбит/сек
Дата кодирования : UTC 2015-04-04 07:06:05
Программа кодирования : mkvmerge v6.1.0 ('Old Devil') built on Mar 4 2013 09:10:42
Библиотека кодирования : libebml v1.3.0 + libmatroska v1.4.0
Видео
Идентификатор : 1
Формат : AVC
Формат/Информация : Advanced Video Codec
Профиль формата : High@L4.1
Параметр CABAC формата : Да
Параметр ReFrames формата : 9 кадров
Идентификатор кодека : V_MPEG4/ISO/AVC
Продолжительность : 6 м. 55 с.
Битрейт : 2400 Кбит/сек
Ширина : 1024 пикселя
Высота : 576 пикселей
Соотношение сторон : 16:9
Режим частоты кадров : Постоянный
Частота кадров : 25,000 кадров/сек
Цветовое пространство : YUV
Субдискретизация насыщенности : 4:2:0
Битовая глубина : 8 бит
Тип развёртки : Прогрессивная
Бит/(Пиксели*Кадры) : 0.163
Размер потока : 116 Мбайт (91%)
Библиотека кодирования : x264 core 130 r2273 b3065e6
Настройки программы : cabac=1 / ref=9 / deblock=1:-3:-3 / analyse=0x3:0x113 / me=umh / subme=10 / psy=1 / psy_rd=1.00:0.15 / mixed_ref=1 / me_range=32 / chroma_me=1 / trellis=2 / 8x8dct=1 / cqm=0 / deadzone=21,11 / fast_pskip=1 / chroma_qp_offset=-3 / threads=6 / lookahead_threads=1 / sliced_threads=0 / nr=0 / decimate=0 / interlaced=0 / bluray_compat=0 / constrained_intra=0 / bframes=9 / b_pyramid=2 / b_adapt=2 / b_bias=0 / direct=3 / weightb=1 / open_gop=0 / weightp=2 / keyint=240 / keyint_min=24 / scenecut=40 / intra_refresh=0 / rc=2pass / mbtree=0 / bitrate=2400 / ratetol=1.0 / qcomp=0.60 / qpmin=0 / qpmax=69 / qpstep=4 / cplxblur=20.0 / qblur=0.5 / ip_ratio=1.40 / pb_ratio=1.30 / aq=1:1.00
Default : Да
Forced : Нет
Аудио
Идентификатор : 2
Формат : AC-3
Формат/Информация : Audio Coding 3
Расширение режима : CM (complete main)
Параметр Endianness формата : Big
Идентификатор кодека : A_AC3
Продолжительность : 6 м. 55 с.
Вид битрейта : Постоянный
Битрейт : 192 Кбит/сек
Каналы : 2 канала
Расположение каналов : Front: L R
Частота : 44,1 КГц
Битовая глубина : 16 бит
Метод сжатия : С потерями
Размер потока : 9,51 Мбайт (7%)
Default : Да
Forced : Нет



Релиз от:
Rip by: Vovan366



   Похожие торренты   Торрент   Размер 
В этой теме нет новых непрочитанных сообщений. Маша и медведь: Дорогая передача [49] (2014) WEB-DLRip от GeneralFilm

1641 | 27

108.67 МБ

В этой теме нет новых непрочитанных сообщений. Маша и медведь: Дорогая передача [49] (2014) WEBRip

172 | 12

89.64 МБ

В этой теме нет новых непрочитанных сообщений. Маша и медведь: Дорогая передача [49] (2014) WEBRip от FreeRutor

338 | 9

98.12 МБ

В этой теме нет новых непрочитанных сообщений. Маша и Медведь: Раз в году [44] (2014) WEB-DLRip-AVC от ExKinoRay

323 | 8

146.53 МБ

В этой теме нет новых непрочитанных сообщений. Маша и Медведь: Героями не рождаются [43] (2014) WEB-DLRip-AVC от ExKinoRay

311 | 30

134.59 МБ

В этой теме нет новых непрочитанных сообщений. Маша и Медведь: Праздник урожая [50] (2014) WEB-DLRip-AVC от ExKinoRay

680 | 18

113.48 МБ

В этой теме нет новых непрочитанных сообщений. Маша и Медведь - День кино [42] (2014) WEB-DLRip-AVC от ExKinoRay

385 | 8

134.28 МБ




Вы не можете начинать темы
Вы не можете отвечать на сообщения
Вы не можете редактировать свои сообщения
Вы не можете удалять свои сообщения
Вы не можете добавлять вложения

Перейти:  
Для Мосгорсуда, Роскомнадзора и рекламодателей: mosgorsud-torrent[собачка]yandex.ru
 Вход
ppkBB3cker v.2 © 2008-2014 @ PPK
[ Time : 0.022s | 15 Queries | GZIP : On ]

Торрент трекер RUTOR.IN, Не можете зайти на rutor.org? Какой новый адрес рутор? Какое зеркало рутор? Не работает rutor.org и зеркала? Тогда наш торрент специально для вас. Rutor.in неофициальное зеркало rutor. В случае если у Вас заблокирован rutor или вдруг Вы не можете на него зайти, то Вы без труда сможете скачать бесплатно и без рекламы последние новинки кино, игр, сериалов и прочего у нас, на Rutor.in. Не нужно использовать прокси, чтобы зайти на рутор, достаточно воспользоваться нашим ресурсом. Все новые фильмы, игры, сериалы, книги и музыка за 2013 и 2014 годы через торрент бесплатно. Скачивайте фильмы в хорошем качестве, игры для пк, xbox, playstation без регистрации. У нас вы найдете новые Зарубежные сериалы и Русские сериалы 2013, 2014, 2015 годов. Оставайтесь с нами, качайте любимые фильмы, игры, сериалы, книги и музыку.