img image001 image001 image001 image001 image001 image001 image001 image001 image001 image001 image001 image001 image001 image001 image001

Planets Sun Sun Sun
Статистика раздачи
Автор: Nickolas3434 | Размер: 629.74 МБ | Добавлен: 05 апр 2015
Раздают: 74    Качают: 7
Скачать торрент
Скачать торрент
Описание торрента

СообщениеДобавлено: 05 апр 2015 

Информация о фильме:
Название: Маша и Медведь - Картина маслом !
Оригинальное название: Маша и Медведь - Картина маслом !
Год выхода: 2012
Жанр: Мультфильм, сказка, детский, семейный
Режиссер: Денис Червяцов
В ролях: Алина Кукушкина, Борис Кутневич
О фильме:
Одним прекрасным зимним днем Медведь и Маша решили порисовать. Маша незадумываясь приспособила краски Медведя и его небольшой холст. Далее эта забавная девочка начала рисовать всех в округе. Но этим все не закончилось, Машино видение мира перенеслось с полотна на всю округу.


Страна: Россия
Продолжительность: 00:07:09
Язык: Русский
Файл:
Формат: MKV
Качество: BDRip 1080p (Исходник Blu-Ray Remux 1080p)
Видео: 1920x1080, 10,8 Мбит/с, 24,000 кадра/сек
Аудио: Русский (DTS, 2 ch, 1509 Кбит/с)
Размер: 630 MB
Общее
Уникальный идентификатор : 227582589123705108266089411168024682669 (0xAB36CFF44C7667BF9A2B2CAEBF7860AD)
Полное имя : Masha_I_Medved_-_Kartina_maslom_(27_serija)_Full_HD_1920x1080.mkv
Формат : Matroska
Версия формата : Version 2
Размер файла : 630 Мбайт
Продолжительность : 7 м. 9 с.
Общий поток : 12,3 Мбит/сек
Название фильма : Rip by -=Сотник=-
Дата кодирования : UTC 2012-09-15 07:38:56
Программа кодирования : mkvmerge v5.8.0 ('No Sleep / Pillow') built on Sep 2 2012 15:37:04
Библиотека кодирования : libebml v1.2.3 + libmatroska v1.3.0
Видео
Идентификатор : 1
Формат : AVC
Формат/Информация : Advanced Video Codec
Профиль формата : High@L4.1
Параметр CABAC формата : Да
Параметр ReFrames формата : 4 кадра
Идентификатор кодека : V_MPEG4/ISO/AVC
Продолжительность : 7 м. 9 с.
Битрейт : 10,8 Мбит/сек
Ширина : 1920 пикселей
Высота : 1080 пикселей
Соотношение сторон : 16:9
Режим частоты кадров : Постоянный
Частота кадров : 24,000 кадра/сек
Цветовое пространство : YUV
Субдискретизация насыщенности : 4:2:0
Битовая глубина : 8 бит
Тип развёртки : Прогрессивная
Бит/(Пиксели*Кадры) : 0.217
Размер потока : 540 Мбайт (86%)
Библиотека кодирования : x264 core 125 r2208 d9d2288
Настройки программы : cabac=1 / ref=4 / deblock=1:-3:-3 / analyse=0x3:0x113 / me=umh / subme=11 / psy=1 / psy_rd=1.00:0.00 / mixed_ref=1 / me_range=16 / chroma_me=1 / trellis=2 / 8x8dct=1 / cqm=0 / deadzone=21,11 / fast_pskip=1 / chroma_qp_offset=-2 / threads=4 / lookahead_threads=1 / sliced_threads=0 / nr=0 / decimate=1 / interlaced=0 / bluray_compat=0 / constrained_intra=0 / bframes=6 / b_pyramid=2 / b_adapt=1 / b_bias=0 / direct=1 / weightb=0 / open_gop=0 / weightp=2 / keyint=240 / keyint_min=24 / scenecut=40 / intra_refresh=0 / rc=2pass / mbtree=0 / bitrate=10800 / ratetol=1.0 / qcomp=0.60 / qpmin=0 / qpmax=69 / qpstep=4 / cplxblur=20.0 / qblur=0.5 / ip_ratio=1.40 / pb_ratio=1.30 / aq=1:1.00
Язык : Russian
Default : Да
Forced : Нет
Аудио
Идентификатор : 2
Формат : DTS
Формат/Информация : Digital Theater Systems
Режим : 16
Параметр Endianness формата : Big
Идентификатор кодека : A_DTS
Продолжительность : 7 м. 9 с.
Вид битрейта : Постоянный
Битрейт : 1509 Кбит/сек
Каналы : 2 канала
Расположение каналов : Front: L R
Частота : 48,0 КГц
Битовая глубина : 24 бит
Метод сжатия : С потерями
Размер потока : 77,3 Мбайт (12%)
Язык : Russian
Default : Да
Forced : Нет




   Похожие торренты   Торрент   Размер 
В этой теме нет новых непрочитанных сообщений. Картина маслом (2015) WEB-DLRip от Generalfilm | КПК

65 | 3

311.99 МБ

В этой теме нет новых непрочитанных сообщений. Маша и медведь+Машкини срашилки. / Маша и медведь+Машкины страшилки [1-61, 1-17] (2009-2017) BDRip, WEB-DLRip

60 | 36

12.62 ГБ

В этой теме нет новых непрочитанных сообщений. Маша и Медведь (01-25) (2009-2012) BDRip 1080p

0 | 2

8.09 ГБ

В этой теме нет новых непрочитанных сообщений. Маша и Медведь (01-25) (2009-2012) BDRip 1080p

13 | 10

9.99 ГБ

В этой теме нет новых непрочитанных сообщений. Маша и Медведь: Подкидыш [23] (2012) BDRip 1080p | 50 FPS

68 | 3

345.45 МБ

В этой теме нет новых непрочитанных сообщений. Маша и медведь. Машины сказки [01-06 из 06] (2012) BDRip 1080p

0 | 2

1.81 ГБ

В этой теме нет новых непрочитанных сообщений. Маша и Медведь. Пещерный медведь [48] (2015) WEB-DL 1080p от GeneralFilm

942 | 39

184.56 МБ




Вы не можете начинать темы
Вы не можете отвечать на сообщения
Вы не можете редактировать свои сообщения
Вы не можете удалять свои сообщения
Вы не можете добавлять вложения

Перейти:  
Для Мосгорсуда, Роскомнадзора и рекламодателей: mosgorsud-torrent[собачка]yandex.ru
 Вход
ppkBB3cker v.2 © 2008-2014 @ PPK
[ Time : 0.098s | 16 Queries | GZIP : Off ]

Торрент трекер RUTOR.IN, Не можете зайти на rutor.org? Какой новый адрес рутор? Какое зеркало рутор? Не работает rutor.org и зеркала? Тогда наш торрент специально для вас. Rutor.in неофициальное зеркало rutor. В случае если у Вас заблокирован rutor или вдруг Вы не можете на него зайти, то Вы без труда сможете скачать бесплатно и без рекламы последние новинки кино, игр, сериалов и прочего у нас, на Rutor.in. Не нужно использовать прокси, чтобы зайти на рутор, достаточно воспользоваться нашим ресурсом. Все новые фильмы, игры, сериалы, книги и музыка за 2013 и 2014 годы через торрент бесплатно. Скачивайте фильмы в хорошем качестве, игры для пк, xbox, playstation без регистрации. У нас вы найдете новые Зарубежные сериалы и Русские сериалы 2013, 2014, 2015 годов. Оставайтесь с нами, качайте любимые фильмы, игры, сериалы, книги и музыку.
cron