img image001 image001 image001 image001 image001 image001 image001 image001 image001 image001 image001 image001 image001 image001 image001

Planets Sun Sun Sun
Статистика раздачи
Автор: Nickolas3434 | Размер: 4.26 ГБ | Добавлен: 08 апр 2015
Раздают: 5    Качают: 2
Скачать торрент
Скачать торрент
Описание торрента

СообщениеДобавлено: 08 апр 2015 

Информация о фильме:
● Название: Халк и агенты СМЭШ (Халк и агенты У.Д.А.Р.)
● Оригинальное название: Hulk and the Agents of S.M.A.S.H.
● Год выхода: 2014
● Жанр: мультфильм, фантастика, боевик, приключения
● Режиссер: Дэн Фосетт, Патрик Арчибальд, Рой Аллен Смит
● В ролях: Фред Татаскьор, Клэнси Браун, Сет Грин, Элиза Душку, Бен Дискин, Джеймс Арнольд Тейлор, Дж.К. Симмонс, Робин Аткин Даунс, Дрейк Белл, Стивен Блум

Описание фильма:
Халк, его двоюродная сестра Женщина-Халк, сын Халка, Скаар, Красный Халк и А-Бомба — ансамбль героев мультсериала, более чем внушителен. Перед лицом угроз, с которыми сталкиваться им прежде еще не доводилось, эти супергерои объединяют свои усилия ради совместной борьбы.

● Страна: США
● Студия: Film Roman Productions; Marvel Animation
● Продолжительность: 01:50:20 (5 серий)
● Перевод: любительский одноголосный
DuBDraG Project
● Субтитры: English
Информация о файле:
● Кодек: MPEG-4 AVC
● Формат: MKV
● Качество: WEB-DL
● Видео: ~4650 kbps, 1920x1080, 23.976 fps
● Аудио# 1 Rus: AC3, 48 kHz, 2 ch, 192 kbps
● Аудио# 2 Eng: AC3, 48 kHz, 6 ch, 384 kbps

● Аудио# 3 Eng: AAC, 48 kHz, 2 ch, ~127 kbps
Семпл
Релиз от: для
01. Planet Hulk. Part 1
02. Planet Hulk. Part 2
04. Fear Itself
05. Guardians of the Galaxy
06. Future Shock
Общее
Уникальный идентификатор: 175750949077338587449564049659736067273 (0x843866CC8588E82583C75AA6FD838CC9)
Полное имя: D:MR_HulkHulk and the Agents of S.M.A.S.H. s02. 2014. mkv. WEB-DL (1920x1080)s02e01. Planet Hulk. Part 1.mkv
Формат: Matroska
Версия формата: Version 4 / Version 2
Размер файла: 865 Мбайт
Продолжительность: 22 м.
Общий поток: 5482 Кбит/сек
Название фильма: s02e01. Planet Hulk. Part 1
Дата кодирования: UTC 2015-03-27 04:46:51
Программа кодирования: mkvmerge v6.9.1 ('Blue Panther') 64bit built on Apr 18 2014 18:23:38
Библиотека кодирования: libebml v1.3.0 + libmatroska v1.4.1
Видео
Идентификатор: 1
Формат: AVC
Формат/Информация: Advanced Video Codec
Профиль формата: High@L4.0
Параметр CABAC формата: Да
Параметр ReFrames формата: 4 кадра
Идентификатор кодека: V_MPEG4/ISO/AVC
Продолжительность: 22 м.
Ширина: 1920 пикселей
Высота: 1080 пикселей
Соотношение сторон: 16:9
Режим частоты кадров: Постоянный
Частота кадров: 23,976 кадра/сек
Цветовое пространство: YUV
Субдискретизация насыщенности: 4:2:0
Битовая глубина: 8 бит
Тип развёртки: Прогрессивная
Заголовок: H.264
Язык: English
Default: Да
Forced: Нет
Основные цвета: BT.709
Характеристики трансфера: BT.709
Коэффициенты матрицы: BT.709
colour_range: Limited
Аудио #1
Идентификатор: 2
Формат: AC-3
Формат/Информация: Audio Coding 3
Расширение режима: CM (complete main)
Параметр Endianness формата: Big
Идентификатор кодека: A_AC3
Продолжительность: 22 м.
Вид битрейта: Постоянный
Битрейт: 192 Кбит/сек
Каналы: 2 канала
Расположение каналов: Front: L R
Частота: 48,0 КГц
Битовая глубина: 16 бит
Метод сжатия: С потерями
Размер потока: 30,3 Мбайт (4%)
Заголовок: DD2.0 VO_DuBDraG ProJECT
Язык: Russian
Default: Да
Forced: Нет
Аудио #2
Идентификатор: 3
Формат: AC-3
Формат/Информация: Audio Coding 3
Расширение режима: CM (complete main)
Параметр Endianness формата: Big
Идентификатор кодека: A_AC3
Продолжительность: 22 м.
Вид битрейта: Постоянный
Битрейт: 384 Кбит/сек
Каналы: 6 каналов
Расположение каналов: Front: L C R, Side: L R, LFE
Частота: 48,0 КГц
Битовая глубина: 16 бит
Метод сжатия: С потерями
Размер потока: 60,6 Мбайт (7%)
Заголовок: DD5.1 Original
Язык: English
Default: Нет
Forced: Нет
Аудио #3
Идентификатор: 4
Формат: AAC
Формат/Информация: Advanced Audio Codec
Профиль формата: LC
Идентификатор кодека: A_AAC
Продолжительность: 22 м.
Каналы: 2 канала
Расположение каналов: Front: L R
Частота: 48,0 КГц
Метод сжатия: С потерями
Заголовок: AAC2.0 Original
Язык: English
Default: Нет
Forced: Нет
Текст #1
Идентификатор: 5
Формат: UTF-8
Идентификатор кодека: S_TEXT/UTF8
Идентификатор кодека/Информация: UTF-8 Plain Text
Заголовок: CC
Язык: English
Default: Нет
Forced: Нет
Когда раздача ведётся путём добавления новых серий, при каждом добавлении создётся новый торрент. Чтобы начать докачку новой серии, пользователям необходимо сделать следующее:
(1) остановить скачивание,
(2) удалить старый торрент у себя из клиента (старые серии удалять не надо),
(3) скачать новый торрент и запустить его у себя в клиенте вместо старого, при этом указать клиенту путь в старую папку, куда и должно происходить скачивание новых серий.
Ваш клиент при этом должен произвести хеширование (проверку) старой папки (если не производит сам - помогите ему сделать это), и будет докачивать только те серии, которых у вас ещё нет. Старые серии при этом не удаляются, а продолжают раздаваться!
Eсли вы уже удалили старые серии, то предотвратить повторную закачку старых серий можно, отжав галочку в соответсвующих местах при запуске нового торрента. По возможности, желательно не удалять старые серии как можно дольше, чтобы релизёр не столько продолжал раздавать старые серии, а смог сконцентрироваться на новых.



   Похожие торренты   Торрент   Размер 
В этой теме нет новых непрочитанных сообщений. Халк и агенты СМЭШ / Hulk and the Agents of S.M.A.S.H. [02x01-07] (2014) WEB-DL 1080p | L1

9 | 11

5.98 ГБ

В этой теме нет новых непрочитанных сообщений. Халк и агенты СМЭШ / Hulk and the Agents of S.M.A.S.H. [02x01 из XX] (2014) WEB-DL 1080p | L1

16 | 5

864.96 МБ

В этой теме нет новых непрочитанных сообщений. Халк и агенты СМЭШ (Халк и агенты У.Д.А.Р.) / Hulk and the Agents of S.M.A.S.H. [02x01-02, 04-06] (2014) WEB-DL 720p | L1

2 | 6

3.53 ГБ

В этой теме нет новых непрочитанных сообщений. Халк и агенты СМЭШ (Халк и агенты У.Д.А.Р.) / Hulk and the Agents of S.M.A.S.H. [02x01 из XXX] (2014) WEB-DLRip | L1

3 | 2

285.26 МБ

В этой теме нет новых непрочитанных сообщений. Халк и агенты СМЭШ (Халк и агенты У.Д.А.Р.) / Hulk and the Agents of S.M.A.S.H. [02x01-07] (2014) WEB-DL 720p | L1

6 | 18

4.99 ГБ

В этой теме нет новых непрочитанных сообщений. Халк и агенты СМЭШ / Hulk and the Agents of S.M.A.S.H. [02x01-02, 04-06] (2014) WEB-DLRip | L1

45 | 5

1.39 ГБ

В этой теме нет новых непрочитанных сообщений. Халк и агенты СМЭШ / Hulk and the Agents of S.M.A.S.H. [02x01 из XXX] (2014) WEB-DL 720p | L1

2 | 3

735.89 МБ




Вы не можете начинать темы
Вы не можете отвечать на сообщения
Вы не можете редактировать свои сообщения
Вы не можете удалять свои сообщения
Вы не можете добавлять вложения

Перейти:  
Для Мосгорсуда, Роскомнадзора и рекламодателей: mosgorsud-torrent[собачка]yandex.ru
 Вход
ppkBB3cker v.2 © 2008-2014 @ PPK
[ Time : 0.566s | 15 Queries | GZIP : On ]

Торрент трекер RUTOR.IN, Не можете зайти на rutor.org? Какой новый адрес рутор? Какое зеркало рутор? Не работает rutor.org и зеркала? Тогда наш торрент специально для вас. Rutor.in неофициальное зеркало rutor. В случае если у Вас заблокирован rutor или вдруг Вы не можете на него зайти, то Вы без труда сможете скачать бесплатно и без рекламы последние новинки кино, игр, сериалов и прочего у нас, на Rutor.in. Не нужно использовать прокси, чтобы зайти на рутор, достаточно воспользоваться нашим ресурсом. Все новые фильмы, игры, сериалы, книги и музыка за 2013 и 2014 годы через торрент бесплатно. Скачивайте фильмы в хорошем качестве, игры для пк, xbox, playstation без регистрации. У нас вы найдете новые Зарубежные сериалы и Русские сериалы 2013, 2014, 2015 годов. Оставайтесь с нами, качайте любимые фильмы, игры, сериалы, книги и музыку.