img image001 image001 image001 image001 image001 image001 image001 image001 image001 image001 image001 image001 image001 image001 image001

Planets Sun Sun Sun
Статистика раздачи
Автор: Nickolas3434 | Размер: 12.81 ГБ | Добавлен: 09 апр 2015
Раздают: 5    Качают: 7
Скачать торрент
Скачать торрент
Описание торрента

СообщениеДобавлено: 09 апр 2015 

Информация о фильме
Название: Будни аэропорта 2
Оригинальное название: The Airport Diary 2
Год выхода: 2013
Жанр: Мультсериал, познавательный, детский, приключения
О фильме:
Второй сезон полюбившегося многим детям мультфильма про самолетики. Главный герой - маленький самолетик Винки - мечтает облететь весь мир, и сейчас он как никогда близок к исполнению заветного желания! В новом сезоне Винки встретит новых друзей, увидит новые места и, конечно, переживет много приключений. Присоединяйтесь к его путешествию!
Страна: Корея
Студия: DPS Co., Ltd.
Продолжительность: 47 x ~ 00:08:52
Перевод: Дублированный (Теремок ТВ)
Доп. инфо: Оригинальный видеоряд - Корея - KOR
Файл
Кодек: H.264
Качество: WEB-DL 720p
Видео: MPEG-4 AVC, ~ 3925 kbps, High@L3.1, 1280x720, 23.976 fps
Звук: Русский, корейский (AC3 2.0, 192 kbps)
Субтитры: нет
2 сезон (Korean):
01. Винки летит за своей мечтой!
02. Винки поступает в школу 'Крылья'
03. Гости в аэропорту Манго
04. Азы - это очень важно!
05. Технический осмотр
06. Любимая книга Бена
07. Дождись меня, Сокол!
08. Слушай меня, Пеликан
09. Не читайте мне нотации!
10. Винки и тренажер
11. Принц и Эмили
12. Страшная-престрашная история
14. Самый быстрый - Пеликан!
15. Придумай себе мечту, Хэлло!
16. Лучший наблюдатель
17. Низко не летать!
18. ДжиПиЮ и видеоигра
19. Аэропорт Кунтанта
20. Винки, Гром, не ссорьтесь!
21. Птица-робот и Мико
22. Торо с озера Пу-Пу
23. Прекрасная темнота
24. Лучшие друзья навсегда
25. Мы с вами!
26. Полет в тумане лести
27. Эмили репортер
28. Полет вверх тормашками
29. Хитрый вор Пинч
30. Винки учится жесткой посадке
31. Солнечная энергия Планера
32. Как быть, если нет карты
33. Гром присматривает за детьми
34. Аккуратность важнее скорости
35. Без разрешения не летать!
36. Проявите смекалку!
37. Путешествие в соляную пустыню
38. Горе-примирители
39. Желание Кари
40. Конкурс талантов
41. Крыло со шрамом - Новый ученик
42. Трое вместе
43. Легендарный учитель
44. В поисках капитана
45. Долгий перелет
46. Мими-подражатель
47. Первый в мире самолет
48. Эмили и лунная радуга

General
Unique ID : 173296807497973750891339865312342350067 (0x825FC046F4CA0BE9BFBE06E8547098F3)
Complete name : s02e40. Конкурс талантов. KOR.WEB-DL.720p.-merci.mkv
Format : Matroska
Format version : Version 2
File size : 279 MiB
Duration : 8mn 52s
Overall bit rate : 4 397 Kbps
Movie name : Будни аэропорта 2 / The Airport Diary 2 / KOR / 2013 / 2 сезон / by - merci -
Encoded date : UTC 2015-03-27 17:34:44
Writing application : mkvmerge v5.8.0 ('No Sleep / Pillow') built on Sep 2 2012 15:37:04
Writing library : libebml v1.2.3 + libmatroska v1.3.0
Video
ID : 1
Format : AVC
Format/Info : Advanced Video Codec
Format profile : High@L3.1
Format settings, CABAC : Yes
Format settings, ReFrames : 2 frames
Codec ID : V_MPEG4/ISO/AVC
Duration : 8mn 52s
Bit rate : 3 925 Kbps
Width : 1 280 pixels
Height : 720 pixels
Display aspect ratio : 16:9
Frame rate mode : Constant
Frame rate : 23.976 fps
Color space : YUV
Chroma subsampling : 4:2:0
Bit depth : 8 bits
Scan type : Progressive
Bits/(Pixel*Frame) : 0.178
Stream size : 249 MiB (89%)
Title : 40. Конкурс талантов. KOR.WEB-DL.720p.x264.-merci
Language : Korean
Default : Yes
Forced : No
Color primaries : BT.709
Transfer characteristics : BT.709
Matrix coefficients : BT.709
Audio #1
ID : 2
Format : AC-3
Format/Info : Audio Coding 3
Mode extension : CM (complete main)
Format settings, Endianness : Big
Codec ID : A_AC3
Duration : 8mn 52s
Bit rate mode : Constant
Bit rate : 192 Kbps
Channel(s) : 2 channels
Channel positions : Front: L R
Sampling rate : 48.0 KHz
Bit depth : 16 bits
Compression mode : Lossy
Stream size : 12.2 MiB (4%)
Title : Dub
Language : Russian
Default : Yes
Forced : No
Audio #2
ID : 3
Format : AC-3
Format/Info : Audio Coding 3
Mode extension : CM (complete main)
Format settings, Endianness : Big
Codec ID : A_AC3
Duration : 8mn 52s
Bit rate mode : Constant
Bit rate : 192 Kbps
Channel(s) : 2 channels
Channel positions : Front: L R
Sampling rate : 48.0 KHz
Bit depth : 16 bits
Compression mode : Lossy
Stream size : 12.2 MiB (4%)
Title : Orig
Language : Korean
Default : No
Forced : No


Релиз от: -merci-



   Похожие торренты   Торрент   Размер 
В этой теме нет новых непрочитанных сообщений. Будни аэропорта 2 [S02x01-47 из 78] (2013) WEB-DLRip | D

33 | 8

5.82 ГБ

В этой теме нет новых непрочитанных сообщений. Будни аэропорта 2 / The Airport Diary 2 [S02x01-78 из 78] (2012 - 2014) Web-DLRip от New-Team | D

31 | 15

9.68 ГБ

В этой теме нет новых непрочитанных сообщений. Будни аэропорта 2 / The Airport Diary 2 [s02] (2013) WEB-DL 720p | D

48 | 10

13.33 ГБ

В этой теме нет новых непрочитанных сообщений. Будни аэропорта [01-33] (2014) WEBRip 720p

77 | 35

5.2 ГБ

В этой теме нет новых непрочитанных сообщений. Будни аэропорта [01-44] (2014) WEBRip 720p

27 | 11

6.95 ГБ

В этой теме нет новых непрочитанных сообщений. Будни аэропорта [01-34] (2014) WEBRip 720p

52 | 60

5.36 ГБ

В этой теме нет новых непрочитанных сообщений. Будни аэропорта [01-40] (2014) WEBRip 720p

59 | 43

6.32 ГБ




Вы не можете начинать темы
Вы не можете отвечать на сообщения
Вы не можете редактировать свои сообщения
Вы не можете удалять свои сообщения
Вы не можете добавлять вложения

Перейти:  
Для Мосгорсуда, Роскомнадзора и рекламодателей: mosgorsud-torrent[собачка]yandex.ru
 Вход
ppkBB3cker v.2 © 2008-2014 @ PPK
[ Time : 0.073s | 15 Queries | GZIP : Off ]

Торрент трекер RUTOR.IN, Не можете зайти на rutor.org? Какой новый адрес рутор? Какое зеркало рутор? Не работает rutor.org и зеркала? Тогда наш торрент специально для вас. Rutor.in неофициальное зеркало rutor. В случае если у Вас заблокирован rutor или вдруг Вы не можете на него зайти, то Вы без труда сможете скачать бесплатно и без рекламы последние новинки кино, игр, сериалов и прочего у нас, на Rutor.in. Не нужно использовать прокси, чтобы зайти на рутор, достаточно воспользоваться нашим ресурсом. Все новые фильмы, игры, сериалы, книги и музыка за 2013 и 2014 годы через торрент бесплатно. Скачивайте фильмы в хорошем качестве, игры для пк, xbox, playstation без регистрации. У нас вы найдете новые Зарубежные сериалы и Русские сериалы 2013, 2014, 2015 годов. Оставайтесь с нами, качайте любимые фильмы, игры, сериалы, книги и музыку.