img image001 image001 image001 image001 image001 image001 image001 image001 image001 image001 image001 image001 image001 image001 image001

Planets Sun Sun Sun
Статистика раздачи
Автор: Nickolas3434 | Размер: 850.71 МБ | Добавлен: 09 апр 2015
Раздают: 349    Качают: 23
Скачать торрент
Скачать торрент
Описание торрента

СообщениеДобавлено: 09 апр 2015 


Информация о фильме
Название: Маша и Медведь. Машкины страшилки
Год выхода: 2014-2015
Жанр: Мультсериал, детский, приключения, комедия
Режиссер: Олег Ужинов, Денис Червяцов, Олег Кузовков
В ролях: Алина Кукушкина
О фильме:
Новый проект студии "Анимаккорд" - "Машкины страшилки"... Все дети боятся темноты. Маша раньше тоже так её боялась, что приходилось ей по ночам с фонариком сидеть! Но однажды Маша придумала сказочку про маленького лесного жучка, который тоже боялся темноты... Трепещите! Маша взялась за новый жанр - теперь она рассказывает страшилки!
Страна: Россия
Студия: Студия "Анимаккорд"
Продолжительность: 4 x ~ 00:05:41
Перевод: не требуется
Файл
Кодек: H.264
Качество: WEB-DL 1080p
Видео: MPEG-4 AVC, ~ 4916 kbps, 1920x1080, 25 fps
Звук: AC3 2.0 192 kbps
Субтитры: нет
01. Душераздирающая повесть о тёмном лесе и маленьком жучке.
02. Жутко-страшное предание о том, как один мальчик боялся умываться.
03. Чудовищная быль о том, как некоторые боятся чудовищ
04. Тревожный сказ о потерявшемся котёнке

General
04. Про котенка. WEB-DL.1080p.x264.-merci-.mkv
Format : Matroska
Format version : Version 2
File size : 212 MiB
Duration : 5mn 41s
Overall bit rate : 5 211 Kbps
Movie name : Машкины страшилки / 2014-2015 / -merci -
Encoded date : UTC 2015-04-08 16:36:37
Writing application : mkvmerge v5.8.0 ('No Sleep / Pillow') built on Sep 2 2012 15:37:04
Writing library : libebml v1.2.3 + libmatroska v1.3.0
Video
ID : 1
Format : AVC
Format/Info : Advanced Video Codec
Format profile : High@L4.0
Format settings, CABAC : Yes
Format settings, ReFrames : 2 frames
Codec ID : V_MPEG4/ISO/AVC
Duration : 5mn 41s
Bit rate : 4 916 Kbps
Width : 1 920 pixels
Height : 1 080 pixels
Display aspect ratio : 16:9
Frame rate mode : Constant
Frame rate : 25.000 fps
Color space : YUV
Chroma subsampling : 4:2:0
Bit depth : 8 bits
Scan type : Progressive
Bits/(Pixel*Frame) : 0.095
Stream size : 200 MiB (94%)
Title : 04. Про котенка. WEB-DL.1080p.x264.-merci-
Language : Russian
Default : Yes
Forced : No
Color primaries : BT.709
Transfer characteristics : BT.709
Matrix coefficients : BT.709
Audio
ID : 2
Format : AC-3
Format/Info : Audio Coding 3
Mode extension : CM (complete main)
Format settings, Endianness : Big
Codec ID : A_AC3
Duration : 5mn 41s
Bit rate mode : Constant
Bit rate : 192 Kbps
Channel(s) : 2 channels
Channel positions : Front: L R
Sampling rate : 48.0 KHz
Bit depth : 16 bits
Compression mode : Lossy
Stream size : 7.82 MiB (4%)
Language : Russian
Default : Yes
Forced : No


Релиз от: -merci-



   Похожие торренты   Торрент   Размер 
В этой теме нет новых непрочитанных сообщений. Маша и Медведь. Машкины страшилки (S01x01-04) / 2014-2015 / WEB-DLRip

197 | 25

359.08 МБ

В этой теме нет новых непрочитанных сообщений. Маша и Медведь. Машкины страшилки [01-19] (2014-2017) WEB-DL 1080p от ExKinoRay

0 | 0

3.97 ГБ

В этой теме нет новых непрочитанных сообщений. Маша и Медведь. Машкины страшилки [01x01-11] (2014-2016) WEB-DL 1080p от -merci-

70 | 18

2.28 ГБ

В этой теме нет новых непрочитанных сообщений. Маша и Медведь. Машкины страшилки [01x01-10] (2014-2016) WEB-DL 1080p от -merci-

199 | 48

2.07 ГБ

В этой теме нет новых непрочитанных сообщений. Маша и Медведь [01-51] + Машины Сказки [01-26] + Машкины страшилки [01-06] (2009-2015) Blu-ray Remux 1080p

33 | 273

115.45 ГБ

В этой теме нет новых непрочитанных сообщений. Маша и медведь+Машкини срашилки. / Маша и медведь+Машкины страшилки [1-61, 1-17] (2009-2017) BDRip, WEB-DLRip

42 | 34

12.62 ГБ

В этой теме нет новых непрочитанных сообщений. Маша и Медведь. Машкины страшилки [01-09] (2014-2015) DVDRip-AVC, WEB-DLRip-AVC от ExKinoRay

1011 | 67

809.81 МБ




Вы не можете начинать темы
Вы не можете отвечать на сообщения
Вы не можете редактировать свои сообщения
Вы не можете удалять свои сообщения
Вы не можете добавлять вложения

Перейти:  
Для Мосгорсуда, Роскомнадзора и рекламодателей: mosgorsud-torrent[собачка]yandex.ru
 Вход
ppkBB3cker v.2 © 2008-2014 @ PPK
[ Time : 0.062s | 15 Queries | GZIP : Off ]

Торрент трекер RUTOR.IN, Не можете зайти на rutor.org? Какой новый адрес рутор? Какое зеркало рутор? Не работает rutor.org и зеркала? Тогда наш торрент специально для вас. Rutor.in неофициальное зеркало rutor. В случае если у Вас заблокирован rutor или вдруг Вы не можете на него зайти, то Вы без труда сможете скачать бесплатно и без рекламы последние новинки кино, игр, сериалов и прочего у нас, на Rutor.in. Не нужно использовать прокси, чтобы зайти на рутор, достаточно воспользоваться нашим ресурсом. Все новые фильмы, игры, сериалы, книги и музыка за 2013 и 2014 годы через торрент бесплатно. Скачивайте фильмы в хорошем качестве, игры для пк, xbox, playstation без регистрации. У нас вы найдете новые Зарубежные сериалы и Русские сериалы 2013, 2014, 2015 годов. Оставайтесь с нами, качайте любимые фильмы, игры, сериалы, книги и музыку.
cron