img image001 image001 image001 image001 image001 image001 image001 image001 image001 image001 image001 image001 image001 image001 image001

Planets Sun Sun Sun
Статистика раздачи
Автор: Nickolas3434 | Размер: 747.94 МБ | Добавлен: 15 апр 2015
Раздают: 100    Качают: 5
Скачать торрент
Скачать торрент
Описание торрента

СообщениеДобавлено: 15 апр 2015 

Информация о фильме
Название: Гнездо дракона
Оригинальное название: Dragon Nest: Warriors' Dawn
Год выхода: 2014
Жанр: фэнтези, приключения, семейный
Режиссер: Юэфэн Сун
Роли озвучивали: Блайт Оффарт, Бьянка Коллинз, Саймон Джэглом
О фильме:
Кто бы мог подумать, что всегда неуклюжий, но несомненно талантливый парень станет великим героем, который спасет свою красивейшую планету от пробудившегося зла? Много лет, пока легендарный Черный дракон спал, земля Алтера хранила хрупкий мир между расами людей, эльфов и неведомых нашему миру животных. Когда же он пробудился, охваченные ужасом жители были вынуждены бежать сквозь остров в попытке найти спасение… Наш герой Ламберт в компании своих пушистых компаньонов отправляется в путь полный веселых развлечений и приключений, встречая настоящих друзей и любовь в лице прекрасной эльфийской девочки. Объединившись, они находят тайную дорогу к пещере дракона, а юный воин выполняет возложенную на него важнейшую миссию: он входит в доверие к Черному Дракону, чтобы с честью и юмором выйти победителем.

Выпущено: США, Китай, Франция / Mili Pictures
Продолжительность: 01:30:01
Озвучивание: Дублированное [Звук с TS]
Примечание: Присутствуют вшитые неотключаемые китайские субтитры.
Файл
Формат: AVI (XviD)
Качество: WEBRip
Видео: 1024 kb/s, 720x400
Аудио: MP3, 128 kb/s (2 ch)
Субтитры: Китайские
Размер: 748 MB
Скачать: Сэмпл


General
Complete name : C:UsersuserDesktopGnezdo.Drakona.2014.Dt.WEBRip.748MB.avi
Format : AVI
Format/Info : Audio Video Interleave
File size : 748 MiB
Duration : 1h 30mn
Overall bit rate : 1 162 Kbps
Movie name : Gnezdo.Drakona.2014.Dt.WEBRip.748MB.ELEKTRI4KA.uniongang.tv
Director : Alice Grew
Writing application : VirtualDubMod 1.5.10.3 | www.virtualdub-fr.org || (build 2550/release)
Copyright : UNIONGANG&RUSTORRENTS
Video
ID : 0
Format : MPEG-4 Visual
Format profile : Advanced Simple@L5
Format settings, BVOP : 2
Format settings, QPel : No
Format settings, GMC : No warppoints
Format settings, Matrix : Default (MPEG)
Muxing mode : Packed bitstream
Codec ID : XVID
Codec ID/Hint : XviD
Duration : 1h 30mn
Bit rate : 1 024 Kbps
Width : 720 pixels
Height : 400 pixels
Display aspect ratio : 16:9
Frame rate : 24.000 fps
Color space : YUV
Chroma subsampling : 4:2:0
Bit depth : 8 bits
Scan type : Progressive
Compression mode : Lossy
Bits/(Pixel*Frame) : 0.148
Stream size : 659 MiB (88%)
Writing library : XviD 73
Audio
ID : 1
Format : MPEG Audio
Format version : Version 1
Format profile : Layer 3
Mode : Joint stereo
Mode extension : MS Stereo
Codec ID : 55
Codec ID/Hint : MP3
Duration : 1h 30mn
Bit rate mode : Constant
Bit rate : 128 Kbps
Channel(s) : 2 channels
Sampling rate : 48.0 KHz
Compression mode : Lossy
Stream size : 82.4 MiB (11%)
Alignment : Aligned on interleaves
Interleave, duration : 42 ms (1.00 video frame)
Interleave, preload duration : 504 ms













   Похожие торренты   Торрент   Размер 
В этой теме нет новых непрочитанных сообщений. Гнездо дракона / Dragon Nest: Warriors' Dawn (2014) WEBRip | Звук с TS

19 | 5

1.37 ГБ

В этой теме нет новых непрочитанных сообщений. Гнездо дракона / Dragon Nest: Warriors' Dawn (2014) WEBRip | Чистый звук

225 | 6

1.37 ГБ

В этой теме нет новых непрочитанных сообщений. Гнездо дракона / Dragon Nest: Warriors' Dawn (2014) WEBRip | Чистый звук

40 | 3

699.08 МБ

В этой теме нет новых непрочитанных сообщений. Гнездо дракона / Dragon Nest: Warriors' Dawn (2014) WEBRip 720p | Звук с TS

81 | 7

1.84 ГБ

В этой теме нет новых непрочитанных сообщений. Гнездо дракона / Dragon Nest: Warriors' Dawn (2014) WEBRip 720p | Чистый звук

416 | 27

1.84 ГБ

В этой теме нет новых непрочитанных сообщений. Гнездо дракона / Dragon Nest: Warriors' Dawn (2014) WEBRip | L2

1105 | 51

1.37 ГБ

В этой теме нет новых непрочитанных сообщений. Гнездо Дракона / Dragon Nest: Warriors' Dawn (2014) HDRip-720p | Sub

2368 | 94

1.66 ГБ




Вы не можете начинать темы
Вы не можете отвечать на сообщения
Вы не можете редактировать свои сообщения
Вы не можете удалять свои сообщения
Вы не можете добавлять вложения

Перейти:  
Для Мосгорсуда, Роскомнадзора и рекламодателей: mosgorsud-torrent[собачка]yandex.ru
 Вход
ppkBB3cker v.2 © 2008-2014 @ PPK
[ Time : 3.865s | 15 Queries | GZIP : On ]

Торрент трекер RUTOR.IN, Не можете зайти на rutor.org? Какой новый адрес рутор? Какое зеркало рутор? Не работает rutor.org и зеркала? Тогда наш торрент специально для вас. Rutor.in неофициальное зеркало rutor. В случае если у Вас заблокирован rutor или вдруг Вы не можете на него зайти, то Вы без труда сможете скачать бесплатно и без рекламы последние новинки кино, игр, сериалов и прочего у нас, на Rutor.in. Не нужно использовать прокси, чтобы зайти на рутор, достаточно воспользоваться нашим ресурсом. Все новые фильмы, игры, сериалы, книги и музыка за 2013 и 2014 годы через торрент бесплатно. Скачивайте фильмы в хорошем качестве, игры для пк, xbox, playstation без регистрации. У нас вы найдете новые Зарубежные сериалы и Русские сериалы 2013, 2014, 2015 годов. Оставайтесь с нами, качайте любимые фильмы, игры, сериалы, книги и музыку.