img image001 image001 image001 image001 image001 image001 image001 image001 image001 image001 image001 image001 image001 image001 image001

Planets Sun Sun Sun
Статистика раздачи
Автор: Nickolas3434 | Размер: 1.48 ГБ | Добавлен: 15 апр 2015
Раздают: 171    Качают: 10
Скачать торрент
Скачать торрент
Описание торрента

СообщениеДобавлено: 15 апр 2015 


Информация о фильме
Название: Дрэгонлэнс: Драконы осенних сумерек
Оригинальное название: Dragonlance: Dragons of Autumn Twilight
Год выхода: 2008
Жанр: мультфильм, фэнтези, боевик, приключения
Режиссер: Уилл Меньот / Will Meugniot
В ролях: Кари Анн Грёнсунд, Тронд Хёвик, Тронд Бренне, Каре Конради, Джон Брунгот, Торалв Морстад, Андерс Бай, Якоб Офтебро, Эли Анне Линнестад, Эйлиф Хеллум Норакер
О фильме:
300 лет назад Боги отвернулись от людей и на земле воцарился хаос. Никто уже не верил в то, что Боги существовали и только некоторые продолжали искать подтверждения, что Боги существуют и они вернутся. Злая сила, во главе с темной королевой Такхизис, захватила землю и пленила людей, превратив их в рабов и только вера в Богов может спасти людей от темных сил…

Страна: США, Индия, Германия
Продолжительность: 01:31:02
Перевод: Любительский (двухголосый, закадровый) ИнтерФильм
Файл
Кодек: XviD
Качество: DVDRip
Видео: 704x400 (1.76:1), 23.976 fps, XviD build 73 ~1734 kbps avg, 0.26 bit/pixel
Звук: Аудио #1: Русский: 48 kHz, AC3 Dolby Digital, 3/2 (L,C,R,l,r) + LFE ch, ~384.00 kbps avg [color=green][Любительский (двухголосый, закадровый)]
Аудио #2: Английский: 48 kHz, AC3 Dolby Digital, 2/0 (L,R) ch, ~192.00 kbps avg [Оригинал]
Субтитры: отсутствуют

General
Complete name : C:UsersX666DesktopDragonlanceDragonlance_-_Dragons_of_Autumn_Twilight_DVDRip.avi
Format : AVI
Format/Info : Audio Video Interleave
File size : 1.48 GiB
Duration : 1h 31mn
Overall bit rate : 2 325 Kbps
Movie name : Dragonlance: Dragons of Autumn Twilight [ripped by domin8]
Genre : Child's
Writing application : VirtualDubMod 1.5.10.3 | www.virtualdub-fr.org || (build 2550/release)
Original source form/Name : Cartoon
Video #0
ID : 0
Format : MPEG-4 Visual
Format profile : Advanced Simple@L5
Format settings, BVOP : Yes
Format settings, QPel : No
Format settings, GMC : No warppoints
Format settings, Matrix : Custom
Codec ID : XVID
Codec ID/Hint : XviD
Duration : 1h 31mn
Bit rate : 1 735 Kbps
Width : 704 pixels
Height : 400 pixels
Display aspect ratio : 16:9
Frame rate : 23.976 fps
Color space : YUV
Chroma subsampling : 4:2:0
Bit depth : 8 bits
Scan type : Progressive
Bits/(Pixel*Frame) : 0.257
Stream size : 1.10 GiB (75%)
Writing library : XviD 73
Audio #1
ID : 1
Format : AC-3
Format/Info : Audio Coding 3
Mode extension : CM (complete main)
Codec ID : 2000
Duration : 1h 30mn
Bit rate mode : Constant
Bit rate : 384 Kbps
Channel(s) : 6 channels
Channel positions : Front: L C R, Side: L R, LFE
Sampling rate : 48.0 KHz
Bit depth : 16 bits
Stream size : 250 MiB (17%)
Alignment : Split accross interleaves
Interleave, duration : 42 ms (1.00 video frame)
Interleave, preload duration : 500 ms
Title : rus
Audio #2
ID : 2
Format : AC-3
Format/Info : Audio Coding 3
Mode extension : CM (complete main)
Codec ID : 2000
Duration : 1h 31mn
Bit rate mode : Constant
Bit rate : 192 Kbps
Channel(s) : 2 channels
Channel positions : Front: L R
Sampling rate : 48.0 KHz
Bit depth : 16 bits
Stream size : 125 MiB (8%)
Alignment : Split accross interleaves
Interleave, duration : 42 ms (1.00 video frame)
Interleave, preload duration : 500 ms
Title : eng











Автор рипа: domin8



   Похожие торренты   Торрент   Размер 
В этой теме нет новых непрочитанных сообщений. Дрэгонлэнс: Драконы осенних сумерек / Dragonlance: Dragons of Autumn Twilight (2008) DVDRip | L1

41 | 4

1.6 ГБ

В этой теме нет новых непрочитанных сообщений. Там обитают драконы / There Be Dragons (2011) DVDRip

10 | 2

1.46 ГБ

В этой теме нет новых непрочитанных сообщений. Последний отблеск сумерек / Twilight's Last Gleaming (1977) BDRip-AVC от E76 | Sub

5 | 8

4.01 ГБ

В этой теме нет новых непрочитанных сообщений. Близнецы-драконы / Twin dragons / Shuang long hui (1992) DVDRip

102 | 32

1.37 ГБ

В этой теме нет новых непрочитанных сообщений. Драконы II: Эра металла / Dragons II: The Metal Ages (2005) DVDRip от Stranik 2.0 | L1

2 | 27

700.4 МБ

В этой теме нет новых непрочитанных сообщений. Драконы навсегда / Dragons Forever / Fei lung mang jeung (1988) DVDRip

40 | 4

1.36 ГБ

В этой теме нет новых непрочитанных сообщений. Драконы: Сага Огня и Льда / Dragons: Fire & Ice (2004) DVDRip от Stranik 2.0 | L1

2 | 2

749.1 МБ




Вы не можете начинать темы
Вы не можете отвечать на сообщения
Вы не можете редактировать свои сообщения
Вы не можете удалять свои сообщения
Вы не можете добавлять вложения

Перейти:  
Для Мосгорсуда, Роскомнадзора и рекламодателей: mosgorsud-torrent[собачка]yandex.ru
 Вход
ppkBB3cker v.2 © 2008-2014 @ PPK
[ Time : 0.045s | 14 Queries | GZIP : On ]

Торрент трекер RUTOR.IN, Не можете зайти на rutor.org? Какой новый адрес рутор? Какое зеркало рутор? Не работает rutor.org и зеркала? Тогда наш торрент специально для вас. Rutor.in неофициальное зеркало rutor. В случае если у Вас заблокирован rutor или вдруг Вы не можете на него зайти, то Вы без труда сможете скачать бесплатно и без рекламы последние новинки кино, игр, сериалов и прочего у нас, на Rutor.in. Не нужно использовать прокси, чтобы зайти на рутор, достаточно воспользоваться нашим ресурсом. Все новые фильмы, игры, сериалы, книги и музыка за 2013 и 2014 годы через торрент бесплатно. Скачивайте фильмы в хорошем качестве, игры для пк, xbox, playstation без регистрации. У нас вы найдете новые Зарубежные сериалы и Русские сериалы 2013, 2014, 2015 годов. Оставайтесь с нами, качайте любимые фильмы, игры, сериалы, книги и музыку.