img image001 image001 image001 image001 image001 image001 image001 image001 image001 image001 image001 image001 image001 image001 image001 image001

Planets Sun Sun Sun
Статистика раздачи
Автор: Nickolas3434 | Размер: 1.93 ГБ | Добавлен: 15 апр 2015
Раздают: 9    Качают: 3
Скачать торрент
Скачать торрент
Описание торрента

СообщениеДобавлено: 15 апр 2015 

Год выпуска: 2005
Выпущено: Люксембург, Франция / Carrère Groupe, Luxanimation, Luxembourg Film Fund, TF1
Жанр: мультфильм
Продолжительность: 5 х ~ 00:22:30
Перевод: Профессиональный (многоголосый, закадровый)
Оригинальная аудиодорожка: английский
Субтитры: русские
Режиссер: Бенуа Пети / Benoît Petit
Роли озвучивали: David Scarpuzza, Delphine Boly, Martin Spinhayer, Пеппино Капотонди, Дэниэл Дюри, Жан-Поль Дермон, Патрик Донней, Натали Хомс, Фабьен Лорио, Фридерик Мо...
Описание: Давным-давно в середине Тихого океана в результате разрушительной катастрофы был затоплен континент Му. Погибла уникальная цивилизация. Несколько групп муитян успели покинуть Му верхом на китах, которые доставили их в разные точки земного шара. Там муитяне создали 24 поселения, в которых хранились камни с зашифрованными посланиями. Согласно пророчеству, Отрок Послания, покинувший континент в спасательном челноке и проспавший в нем много веков, должен будет собрать эти священные камни, чтобы потомки его народа разыскали великое наследие Му. На этом пути отважный мальчик преодолеет множество препятствий и проникнет в загадочные места, охраняемые страшными животными. А помогут ему в этом легендарный кит Моби Дик, девочка, обладающая даром телепатического общения с животными и экстравагантная птица Зу, умеющая телепортировать предметы в разные точки земли.






Качество: DVDRip / DVD9 R5 от компании «Монолит»
Формат: AVI
Видео: от 704x528 (4:3), 25.000 fps, XViD ~ 1800 kbps avg, 0.193 bit/pixel
Аудио 1: 48 kHz, AC3 6 ch, 448 kbps, русский
Аудио 2: 48 kHz, AC3 2 ch, 192 kbps, английкий
Релиз от:


01. Вестник из прошлого
02. Ледяное сердце
03. Врата дыма
04. Подводные стражи
05. Тайна долины туманов

Внимание! Раздача ведётся путём добавления новых серий; при каждом добавлении создаётся новый торрент-файл. Чтобы начать докачку новой серии, пользователям необходимо сделать следующее:
(1) остановить скачивание;
(2) удалить старый торрент-файл у себя из клиента (старые серии удалять не надо);
(3) скачать новый торрент-файл и запустить его у себя в клиенте вместо старого, при этом указать клиенту путь в старую папку куда и должно происходить скачивание новых серий.
Ваш клиент при этом должен произвести хеширование (проверку) старой папки (если он не производит проверку сам – помогите ему сделать это), и будет докачивать только те серии которых у вас ещё нет. Старые серии при этом не удаляются, а продолжают раздаваться!
Если вы уже удалили старые серии, то предотвратить повторную закачку старых серий можно, отжав галочку в соответствующих местах при запуске нового торрент-файла. Желательно старые серии не удалять как можно дольше, чтобы релизёр не столько продолжал раздавать старые серии, а смог сконцентрироваться на новых.

General
Format : AVI
Format/Info : Audio Video Interleave
File size : 394 MiB
Duration : 22mn 30s
Overall bit rate : 2 447 Kbps
Writing application : VirtualDubMod 1.5.10.3 (build 2550/release)
Writing library : VirtualDubMod build 2550/release
Video
ID : 0
Format : MPEG-4 Visual
Format profile : Advanced Simple@L5
Format settings, BVOP : 1
Format settings, QPel : No
Format settings, GMC : No warppoints
Format settings, Matrix : Custom
Codec ID : XVID
Codec ID/Hint : XviD
Duration : 22mn 30s
Bit rate : 1 800 Kbps
Width : 704 pixels
Height : 528 pixels
Display aspect ratio : 4:3
Frame rate : 25.000 fps
Color space : YUV
Chroma subsampling : 4:2:0
Bit depth : 8 bits
Scan type : Progressive
Compression mode : Lossy
Bits/(Pixel*Frame) : 0.193
Stream size : 289 MiB (73%)
Writing library : XviD 73
Audio #1
ID : 1
Format : AC-3
Format/Info : Audio Coding 3
Mode extension : CM (complete main)
Format settings, Endianness : Big
Codec ID : 2000
Duration : 22mn 30s
Bit rate mode : Constant
Bit rate : 448 Kbps
Channel(s) : 6 channels
Channel positions : Front: L C R, Side: L R, LFE
Sampling rate : 48.0 KHz
Bit depth : 16 bits
Compression mode : Lossy
Stream size : 72.1 MiB (18%)
Alignment : Split accross interleaves
Interleave, duration : 40 ms (1.00 video frame)
Interleave, preload duration : 500 ms
Audio #2
ID : 2
Format : AC-3
Format/Info : Audio Coding 3
Format profile : Dolby Digital
Mode extension : CM (complete main)
Format settings, Endianness : Big
Codec ID : 2000
Duration : 22mn 30s
Bit rate mode : Constant
Bit rate : 192 Kbps
Channel(s) : 2 channels
Channel positions : Front: L R
Sampling rate : 48.0 KHz
Bit depth : 16 bits
Compression mode : Lossy
Stream size : 30.9 MiB (8%)
Alignment : Split accross interleaves
Interleave, duration : 40 ms (1.00 video frame)
Interleave, preload duration : 500 ms





   Похожие торренты   Торрент   Размер 
В этой теме нет новых непрочитанных сообщений. Моби Дик и загадка Му / Moby Dick et le secret de Mu [01-05 из 26] (2005) DVDRip-AVC от New-Team | P

16 | 4

1.93 ГБ

В этой теме нет новых непрочитанных сообщений. Моби Дик / Moby Dick (1998) DVDRip | P

346 | 38

2.05 ГБ

В этой теме нет новых непрочитанных сообщений. Моби Дик / Moby Dick [01-02 из 02] (2011) BDRip | P

218 | 25

3.27 ГБ

В этой теме нет новых непрочитанных сообщений. Аферисты Дик и Джейн / Fun with Dick and Jane (2005) DVDRip от Scarabey | D

179 | 18

751.13 МБ

В этой теме нет новых непрочитанных сообщений. Аферисты Дик и Джейн / Fun with Dick and Jane (2005) DVDRip от Scarabey | D

336 | 46

1.45 ГБ

В этой теме нет новых непрочитанных сообщений. Moby - Moby - Play [Remastered] (1999/2014) OGG

153 | 5

202.51 МБ

В этой теме нет новых непрочитанных сообщений. Аферисты Дик и Джейн / Fun with Dick and Jane (2005) HDTVRip-AVC | D, P

368 | 141

2.19 ГБ




Вы не можете начинать темы
Вы не можете отвечать на сообщения
Вы не можете редактировать свои сообщения
Вы не можете удалять свои сообщения
Вы не можете добавлять вложения

Перейти:  
 Вход
ppkBB3cker v.2 © 2008-2014 @ PPK
[ Time : 0.026s | 16 Queries | GZIP : Off ]

cron