img image001 image001 image001 image001 image001 image001 image001 image001 image001 image001 image001 image001 image001 image001 image001

Planets Sun Sun Sun
Статистика раздачи
Автор: Nickolas3434 | Размер: 1.93 ГБ | Добавлен: 15 апр 2015
Раздают: 16    Качают: 4
Скачать торрент
Скачать торрент
Описание торрента

СообщениеДобавлено: 15 апр 2015 

Год выпуска: 2005
Выпущено: Люксембург, Франция / Carrère Groupe, Luxanimation, Luxembourg Film Fund, TF1
Жанр: мультфильм
Продолжительность: 5 х ~ 00:22:30
Перевод: Профессиональный (многоголосый, закадровый)
Оригинальная аудиодорожка: английский
Субтитры: русские
Режиссер: Бенуа Пети / Benoît Petit
Роли озвучивали: Дэвид Скарпузза, Дэльфин Боли, Мартин Спинхайр, Пеппино Капотонди, Дэниэл Дюри, Жан-Поль Дермон, Патрик Донней, Натали Хомс, Фабьен Лорио, Фридерик Мо...
Описание: Давным-давно в середине Тихого океана в результате разрушительной катастрофы был затоплен континент Му. Погибла уникальная цивилизация. Несколько групп муитян успели покинуть Му верхом на китах, которые доставили их в разные точки земного шара. Там муитяне создали 24 поселения, в которых хранились камни с зашифрованными посланиями. Согласно пророчеству, Отрок Послания, покинувший континент в спасательном челноке и проспавший в нем много веков, должен будет собрать эти священные камни, чтобы потомки его народа разыскали великое наследие Му. На этом пути отважный мальчик преодолеет множество препятствий и проникнет в загадочные места, охраняемые страшными животными. А помогут ему в этом легендарный кит Моби Дик, девочка, обладающая даром телепатического общения с животными и экстравагантная птица Зу, умеющая телепортировать предметы в разные точки земли.






Качество: DVDRip-AVC / DVD9 R5 от компании «Монолит»
Формат: MKV
Видео: 704x572@752x572 (4:3), 25.000 fps, MPEG-4 AVC ~ 1809 kbps avg, 0.180 bit/pixel
Аудио 1: 48 kHz, AC3 6 ch, 448 kbps, русский
Аудио 2: 48 kHz, AC3 2 ch, 192 kbps, английкий
Релиз от:


01. Вестник из прошлого
02. Ледяное сердце
03. Врата дыма
04. Подводные стражи
05. Тайна долины туманов

Внимание! Раздача ведётся путём добавления новых серий; при каждом добавлении создаётся новый торрент-файл. Чтобы начать докачку новой серии, пользователям необходимо сделать следующее:
(1) остановить скачивание;
(2) удалить старый торрент-файл у себя из клиента (старые серии удалять не надо);
(3) скачать новый торрент-файл и запустить его у себя в клиенте вместо старого, при этом указать клиенту путь в старую папку куда и должно происходить скачивание новых серий.
Ваш клиент при этом должен произвести хеширование (проверку) старой папки (если он не производит проверку сам – помогите ему сделать это), и будет докачивать только те серии которых у вас ещё нет. Старые серии при этом не удаляются, а продолжают раздаваться!
Если вы уже удалили старые серии, то предотвратить повторную закачку старых серий можно, отжав галочку в соответствующих местах при запуске нового торрент-файла. Желательно старые серии не удалять как можно дольше, чтобы релизёр не столько продолжал раздавать старые серии, а смог сконцентрироваться на новых.

General
Format : Matroska
Format version : Version 4 / Version 2
File size : 395 MiB
Duration : 22mn 30s
Overall bit rate : 2 451 Kbps
Encoded date : UTC 2015-04-15 12:46:33
Writing application : mkvmerge v7.8.0 ('River Man') 64bit built on Mar 27 2015 16:31:37
Writing library : libebml v1.3.1 + libmatroska v1.4.2
DURATION : 00:21:31.359000000
NUMBER_OF_FRAMES : 279
NUMBER_OF_BYTES : 16293
_STATISTICS_WRITING_APP : mkvmerge v7.8.0 ('River Man') 64bit built on Mar 27 2015 16:31:37
_STATISTICS_WRITING_DATE_UTC : 2015-04-15 12:46:33
_STATISTICS_TAGS : BPS DURATION NUMBER_OF_FRAMES NUMBER_OF_BYTES
Video
ID : 1
Format : AVC
Format/Info : Advanced Video Codec
Format profile : High@L4.1
Format settings, CABAC : Yes
Format settings, ReFrames : 8 frames
Codec ID : V_MPEG4/ISO/AVC
Duration : 22mn 30s
Bit rate : 1 809 Kbps
Width : 704 pixels
Height : 572 pixels
Display aspect ratio : 4:3
Frame rate : 25.000 fps
Color space : YUV
Chroma subsampling : 4:2:0
Bit depth : 8 bits
Scan type : Progressive
Bits/(Pixel*Frame) : 0.180
Stream size : 284 MiB (72%)
Writing library : x264 core 130 r2273 b3065e6
Encoding settings : cabac=1 / ref=8 / deblock=1:-2:-1 / analyse=0x3:0x113 / me=umh / subme=10 / psy=1 / psy_rd=1.00:0.05 / mixed_ref=1 / me_range=32 / chroma_me=1 / trellis=2 / 8x8dct=1 / cqm=0 / deadzone=21,11 / fast_pskip=0 / chroma_qp_offset=-3 / threads=9 / lookahead_threads=1 / sliced_threads=0 / nr=0 / decimate=0 / interlaced=0 / bluray_compat=0 / constrained_intra=0 / bframes=8 / b_pyramid=2 / b_adapt=2 / b_bias=0 / direct=3 / weightb=1 / open_gop=0 / weightp=2 / keyint=250 / keyint_min=25 / scenecut=40 / intra_refresh=0 / rc=2pass / mbtree=0 / bitrate=1809 / ratetol=1.0 / qcomp=0.60 / qpmin=0 / qpmax=69 / qpstep=4 / cplxblur=20.0 / qblur=0.5 / ip_ratio=1.40 / pb_ratio=1.30 / aq=1:1.00
Language : English
Default : Yes
Forced : No
Audio #1
ID : 2
Format : AC-3
Format/Info : Audio Coding 3
Mode extension : CM (complete main)
Format settings, Endianness : Big
Codec ID : A_AC3
Duration : 22mn 30s
Bit rate mode : Constant
Bit rate : 448 Kbps
Channel(s) : 6 channels
Channel positions : Front: L C R, Side: L R, LFE
Sampling rate : 48.0 KHz
Bit depth : 16 bits
Compression mode : Lossy
Stream size : 72.1 MiB (18%)
Language : Russian
Default : Yes
Forced : No
Audio #2
ID : 3
Format : AC-3
Format/Info : Audio Coding 3
Format profile : Dolby Digital
Mode extension : CM (complete main)
Format settings, Endianness : Big
Codec ID : A_AC3
Duration : 22mn 30s
Bit rate mode : Constant
Bit rate : 192 Kbps
Channel(s) : 2 channels
Channel positions : Front: L R
Sampling rate : 48.0 KHz
Bit depth : 16 bits
Compression mode : Lossy
Stream size : 30.9 MiB (8%)
Language : English
Default : No
Forced : No
Text
ID : 4
Format : UTF-8
Codec ID : S_TEXT/UTF8
Codec ID/Info : UTF-8 Plain Text
Language : Russian
Default : No
Forced : No





   Похожие торренты   Торрент   Размер 
В этой теме нет новых непрочитанных сообщений. Моби Дик и загадка Му / Moby Dick et le secret de Mu [01-05 из 26] (2005) DVDRip от New-Team | P

10 | 3

1.93 ГБ

В этой теме нет новых непрочитанных сообщений. Моби Дик / Mo-bi-dik / Moby Dick (2011) DVDRip | L2

12 | 3

1.47 ГБ

В этой теме нет новых непрочитанных сообщений. Моби Дик / Moby Dick (2010) DVDRip

118 | 5

1.37 ГБ

В этой теме нет новых непрочитанных сообщений. Моби Дик / Moby Dick (1998) DVDRip | P

346 | 38

2.05 ГБ

В этой теме нет новых непрочитанных сообщений. Моби Дик / Moby Dick / Mo-bi-dik (2011) DVDRip

2 | 2

2.28 ГБ

В этой теме нет новых непрочитанных сообщений. Моби Дик / Moby Dick [01-02 из 02] (2011) BDRip | P

192 | 24

3.27 ГБ

В этой теме нет новых непрочитанных сообщений. Моби Дик: Охота на монстра / Moby Dick (2010) HDRip

31 | 5

1.36 ГБ




Вы не можете начинать темы
Вы не можете отвечать на сообщения
Вы не можете редактировать свои сообщения
Вы не можете удалять свои сообщения
Вы не можете добавлять вложения

Перейти:  
Для Мосгорсуда, Роскомнадзора и рекламодателей: mosgorsud-torrent[собачка]yandex.ru
 Вход
ppkBB3cker v.2 © 2008-2014 @ PPK
[ Time : 0.045s | 16 Queries | GZIP : Off ]

cron