img image001 image001 image001 image001 image001 image001 image001 image001 image001 image001 image001 image001 image001 image001 image001

Planets Sun Sun Sun
Статистика раздачи
Автор: Nickolas3434 | Размер: 7.59 ГБ | Добавлен: 22 апр 2015
Раздают: 251    Качают: 37
Скачать торрент
Скачать торрент
Описание торрента

СообщениеДобавлено: 22 апр 2015 




Феи: Легенда о чудовище
Tinker Bell and the Legend of the NeverBeast



Год выпуска: 2014
Страна: США (Disneytoon Studios)
Жанр: Мультфильм, Фэнтези, Приключения, Семейный
Продолжительность: 01:16:15
Перевод: Профессиональный дублированный (лицензия)
Режиссер: Стив Лотер / Steve Loter
Исполнительный продюсер: Джон Лассетер / John Lasseter


озвучивали (дублировали):

Tinker Bell - Мэй Уитман (Анна Бегунова)
Fawn - Джиннифер Гудвин (Екатерина Семенова)
Nyx - (Ирина Слуцкая)
Silvermist - Люси Лью (Ольга Арнтгольц)
Scribble - Томас Леннон
Iridessa - Рэйвен
Vidia - Памела Адлон (Елена Великанова)
Rosetta - Меган Хилти (Ирина Рахманова)
Fury - Мелани Браун
Frawn / Flora - Youlika Skafida
Buck - Morten Lindemann Olsen



Описание: Анимационная сказка расскажет удивительную историю о веселой и талантливой фее Фауне, которая убеждена в том, что о книге нельзя судить по ее обложке, впрочем, как и о животном по его клыкам, поэтому она дружит с таинственным существом громадных размеров из Нетландии по прозвищу Чудовище.
В это время группа волшебных фей разведки не настолько уверены в этом страшном звере и намереваются захватить его прежде, чем он уничтожит их дома. Они хотят отправиться на поиски Чудовища. Фауна, чтобы спасти своего нового друга, остается лишь доказать всем, что он — существо доброе и не собирается вредить другим…



Доп. инфо: Все дороги синхронизировал "на глаз" ввиду отсутствия нормально синхронизированного оригинала. Главы добавил.
За ссылку на исходник спасибо пользователю 119905346!


Премьера: 12 декабря 2014 (18 декабря 2014)
Релиз на Blu-Ray 2D (DVD) (Россия): 31 марта 2015





Качество: HDTVrip (автор неизвестен)
Контейнер: MKV
Формат 3D: Half SideBySide / Горизонтальная анаморфная стереопара
Порядок ракурсов: левый ракурс первый


Видео: AVC / 23,976 fps / 1920х1080p / 12.0 Mbps
Аудио:
#1 - Русский / AC3 / 48 KHz / 5.1 ch / 640 Kbps (Дубляж - BD Eur)
#2 - Украинский / AC3 / 48 KHz / 5.1 ch / 640 Kbps (Дубляж - Disney / Buena Vista)
#3 - Английский / AC3 / 48 KHz / 5.1 ch / 640 Kbps (Original - BD Eur)
Субтитры (внешние SRT UTF-8):
#1 - Русские Полные (iTunes)
#2 - English Full
#3 - English SDH
General
Unique ID : 174791339264168033922420814272459630938 (0x837F9661DE1A97878690A29E2326E95A)
Complete name : E:TinkerBellAndTheLegendOfTheNeverbeast(2014)3D-halfSBS(HDTVrip)RmxAsh61TinkerBellAndTheLegendOfTheNeverbeast(2014)3D-halfSBS(HDTVrip)RmxAsh61.mkv
Format : Matroska
Format version : Version 2
File size : 7.59 GiB
Duration : 1h 16mn
Overall bit rate : 14.2 Mbps
Movie name : Феи: Легенда о чудовище / Tinker Bell and the Legend of the NeverBeast (2014) 3D
Encoded date : UTC 2015-04-19 10:47:02
Writing application : mkvmerge v5.8.0 ('No Sleep / Pillow') built on Sep 2 2012 15:37:04
Writing library : libebml v1.2.3 + libmatroska v1.3.0
Video
ID : 1
Format : AVC
Format/Info : Advanced Video Codec
Format profile : High@L4.0
Format settings, CABAC : Yes
Format settings, ReFrames : 3 frames
Codec ID : V_MPEG4/ISO/AVC
Duration : 1h 16mn
Bit rate : 12.0 Mbps
Width : 1 920 pixels
Height : 1 080 pixels
Display aspect ratio : 16:9
Frame rate mode : Constant
Frame rate : 24.000 fps
Standard : Component
Color space : YUV
Chroma subsampling : 4:2:0
Bit depth : 8 bits
Scan type : Progressive
Bits/(Pixel*Frame) : 0.242
Stream size : 6.41 GiB (85%)
Title : HDTVrip (remux by Ash61)
Language : English
Default : Yes
Forced : No
Color primaries : BT.709
Transfer characteristics : BT.709
Matrix coefficients : BT.709
Audio #1
ID : 2
Format : AC-3
Format/Info : Audio Coding 3
Mode extension : CM (complete main)
Format settings, Endianness : Big
Codec ID : A_AC3
Duration : 1h 16mn
Bit rate mode : Constant
Bit rate : 640 Kbps
Channel(s) : 6 channels
Channel positions : Front: L C R, Side: L R, LFE
Sampling rate : 48.0 KHz
Bit depth : 16 bits
Compression mode : Lossy
Delay relative to video : 13ms
Stream size : 349 MiB (4%)
Title : Дубляж - BD Eur
Language : Russian
Default : Yes
Forced : No
Audio #2
ID : 3
Format : AC-3
Format/Info : Audio Coding 3
Mode extension : CM (complete main)
Format settings, Endianness : Big
Codec ID : A_AC3
Duration : 1h 16mn
Bit rate mode : Constant
Bit rate : 640 Kbps
Channel(s) : 6 channels
Channel positions : Front: L C R, Side: L R, LFE
Sampling rate : 48.0 KHz
Bit depth : 16 bits
Compression mode : Lossy
Delay relative to video : 13ms
Stream size : 349 MiB (4%)
Title : Дубляж - Disney / Buena Vista
Language : Ukrainian
Default : No
Forced : No
Audio #3
ID : 4
Format : AC-3
Format/Info : Audio Coding 3
Mode extension : CM (complete main)
Format settings, Endianness : Big
Codec ID : A_AC3
Duration : 1h 16mn
Bit rate mode : Constant
Bit rate : 640 Kbps
Channel(s) : 6 channels
Channel positions : Front: L C R, Side: L R, LFE
Sampling rate : 48.0 KHz
Bit depth : 16 bits
Compression mode : Lossy
Delay relative to video : 13ms
Stream size : 349 MiB (4%)
Title : Original - BD Eur
Language : English
Default : No
Forced : No
Menu
00:00:00.000 : :1. Awakening The Beast
00:03:09.961 : :2. Baby Hawk
00:10:56.844 : :3. A Great Discovery
00:16:46.860 : :4. An Understanding
00:20:28.457 : :5. Making Friends
00:24:22.274 : :6. Tower Building
00:31:00.505 : :7. Introducing Gruff
00:34:43.811 : :8. Fawn's Expertise
00:38:11.018 : :9. The Beast's Safety
00:41:14.785 : :10. The Search Begins
00:44:41.241 : :11. Transformation
00:49:56.765 : :12. Learning The Truth
00:53:07.539 : :13. Fighting The Storm
00:57:09.656 : :14. Saving Pixie Hollow
01:02:56.461 : :15. Going Home
01:07:56.385 : :16. End Credits





















   Похожие торренты   Торрент   Размер 
В этой теме нет новых непрочитанных сообщений. Феи: Легенда о чудовище / Tinker Bell and the Legend of the NeverBeast (2014) BDRemux-1080p | Чистый звук

116 | 3

20.87 ГБ

В этой теме нет новых непрочитанных сообщений. Феи: Легенда о чудовище / Tinker Bell and the Legend of the NeverBeast (2014) BDRip-1080p | Чистый звук

1124 | 20

4.58 ГБ

В этой теме нет новых непрочитанных сообщений. Феи: Легенда о чудовище / Tinker Bell and the Legend of the NeverBeast (2014) HDRip-720p | Трейлер

43 | 6

46.95 МБ

В этой теме нет новых непрочитанных сообщений. Феи: Легенда о чудовище / Tinker Bell and the Legend of the NeverBeast (2014) BDRip от Stranik 2.0 | Чистый звук

334 | 18

701.72 МБ

В этой теме нет новых непрочитанных сообщений. Феи: Легенда о чудовище / Legend of the NeverBeast (2014) Blu-Ray 1080p от HDClub | Лицензия

8 | 10

30.33 ГБ

В этой теме нет новых непрочитанных сообщений. Феи: Легенда о чудовище / Legend of the NeverBeast (2014) BDRemux 1080p | Лицензия

45 | 3

20.48 ГБ

В этой теме нет новых непрочитанных сообщений. Феи: Легенда о чудовище / Legend of the NeverBeast (2014) BDRip 1080p | iTunes Russia

342 | 2

9.55 ГБ




Вы не можете начинать темы
Вы не можете отвечать на сообщения
Вы не можете редактировать свои сообщения
Вы не можете удалять свои сообщения
Вы не можете добавлять вложения

Перейти:  
Для Мосгорсуда, Роскомнадзора и рекламодателей: mosgorsud-torrent[собачка]yandex.ru
 Вход
ppkBB3cker v.2 © 2008-2014 @ PPK
[ Time : 0.073s | 15 Queries | GZIP : Off ]

Торрент трекер RUTOR.IN, Не можете зайти на rutor.org? Какой новый адрес рутор? Какое зеркало рутор? Не работает rutor.org и зеркала? Тогда наш торрент специально для вас. Rutor.in неофициальное зеркало rutor. В случае если у Вас заблокирован rutor или вдруг Вы не можете на него зайти, то Вы без труда сможете скачать бесплатно и без рекламы последние новинки кино, игр, сериалов и прочего у нас, на Rutor.in. Не нужно использовать прокси, чтобы зайти на рутор, достаточно воспользоваться нашим ресурсом. Все новые фильмы, игры, сериалы, книги и музыка за 2013 и 2014 годы через торрент бесплатно. Скачивайте фильмы в хорошем качестве, игры для пк, xbox, playstation без регистрации. У нас вы найдете новые Зарубежные сериалы и Русские сериалы 2013, 2014, 2015 годов. Оставайтесь с нами, качайте любимые фильмы, игры, сериалы, книги и музыку.