img image001 image001 image001 image001 image001 image001 image001 image001 image001 image001 image001 image001 image001 image001 image001

Planets Sun Sun Sun
Статистика раздачи
Автор: Nickolas3434 | Размер: 890.35 МБ | Добавлен: 22 апр 2015
Раздают: 107    Качают: 3
Скачать торрент
Скачать торрент
Описание торрента

СообщениеДобавлено: 22 апр 2015 

Флинстоуны: борцы каменного века
| The Flintstones and WWE:
Stone Age Smackdown |

Информация о фильме
Название: Флинстоуны: борцы каменного века
Оригинальное название: The Flintstones and WWE: Stone Age Smackdown
Год выхода: 2015
Жанр: мультфильм, комедия, приключения, семейный
Режиссер: Тони Червоне, Спайк Брандт
В ролях: Джон Сина, Николь Гарсиа, Билл Голдберг, Брианна Гарсиа, СМ Панк, Брайан Даниэльсон, Винс МакМахон
О фильме:
Когда Фред теряет отпускные деньги своей семьи, он решает вернуть их с помощью спортивного шоу - рестлинга.

Страна: США
Студия: Hanna-Barbera, WWE Studios, Warner Bros. Animation
Продолжительность: 00:51:41
Перевод: Профессиональный многоголосый
Файл
Кодек: h.264
Качество: BDRip-AVC
Видео: 1828 Кбит/с, 1024х576, 23.976 кадр/с
Звук: Русский (AC3, 2 ch, 192 Кбит/с), английский (AC3, 6 ch, 384 Кбит/с)
Субтитры: Английские (полные, SDH)
Полное имя : The.Flintstones.and.WWE.Stone.Age.Smackdown.2015.x264.BDRip.AVC.0ptimus.mkv
Формат : Matroska
Версия формата : Version 2
Размер файла : 890 Мбайт
Продолжительность : 51 м.
Общий поток : 2408 Кбит/сек
Название фильма : Флинстоуны: борцы каменного века | The Flintstones and WWE: Stone Age Smackdown [2015] -= BDRip (AVC) by 0ptimus =-
Дата кодирования : UTC 2015-04-20 05:39:26
Программа кодирования : mkvmerge v6.6.0 ('The Edge Of The In Between') built on Dec 1 2013 17:55:00
Библиотека кодирования : libebml v1.3.0 + libmatroska v1.4.1
Видео
Идентификатор : 1
Формат : AVC
Формат/Информация : Advanced Video Codec
Профиль формата : High@L4.1
Параметр CABAC формата : Да
Параметр ReFrames формата : 9 кадров
Идентификатор кодека : V_MPEG4/ISO/AVC
Продолжительность : 51 м.
Битрейт : 1828 Кбит/сек
Ширина : 1024 пикселя
Высота : 576 пикселей
Соотношение сторон : 16:9
Режим частоты кадров : Постоянный
Частота кадров : 23,976 кадра/сек
Цветовое пространство : YUV
Субдискретизация насыщенности : 4:2:0
Битовая глубина : 8 бит
Тип развёртки : Прогрессивная
Бит/(Пиксели*Кадры) : 0.129
Размер потока : 660 Мбайт (74%)
Заголовок : Rip by 0ptimus
Библиотека кодирования : x264 core 133 r2334 a3ac64b
Настройки программы : cabac=1 / ref=9 / deblock=1:-2:-1 / analyse=0x3:0x113 / me=umh / subme=11 / psy=1 / psy_rd=1.00:0.20 / mixed_ref=1 / me_range=32 / chroma_me=1 / trellis=2 / 8x8dct=1 / cqm=0 / deadzone=21,11 / fast_pskip=0 / chroma_qp_offset=-3 / threads=3 / lookahead_threads=1 / sliced_threads=0 / nr=0 / decimate=0 / interlaced=0 / bluray_compat=0 / constrained_intra=0 / bframes=11 / b_pyramid=2 / b_adapt=2 / b_bias=0 / direct=3 / weightb=1 / open_gop=0 / weightp=2 / keyint=240 / keyint_min=23 / scenecut=40 / intra_refresh=0 / rc_lookahead=40 / rc=2pass / mbtree=0 / bitrate=1828 / ratetol=1.0 / qcomp=0.60 / qpmin=0 / qpmax=69 / qpstep=4 / cplxblur=20.0 / qblur=0.5 / vbv_maxrate=50000 / vbv_bufsize=50000 / nal_hrd=none / ip_ratio=1.40 / pb_ratio=1.30 / aq=1:1.00
Язык : English
Default : Да
Forced : Да
Аудио #1
Идентификатор : 2
Формат : AC-3
Формат/Информация : Audio Coding 3
Расширение режима : CM (complete main)
Параметр Endianness формата : Big
Идентификатор кодека : A_AC3
Продолжительность : 51 м.
Вид битрейта : Постоянный
Битрейт : 192 Кбит/сек
Каналы : 2 канала
Расположение каналов : Front: L R
Частота : 48,0 КГц
Битовая глубина : 16 бит
Метод сжатия : С потерями
Размер потока : 71,0 Мбайт (8%)
Заголовок : Многоголосый AC3 2.0 @ 192 kbps
Язык : Russian
Default : Нет
Forced : Нет
Аудио #2
Идентификатор : 3
Формат : AC-3
Формат/Информация : Audio Coding 3
Расширение режима : CM (complete main)
Параметр Endianness формата : Big
Идентификатор кодека : A_AC3
Продолжительность : 51 м.
Вид битрейта : Постоянный
Битрейт : 384 Кбит/сек
Каналы : 6 каналов
Расположение каналов : Front: L C R, Side: L R, LFE
Частота : 48,0 КГц
Битовая глубина : 16 бит
Метод сжатия : С потерями
Размер потока : 142 Мбайт (16%)
Заголовок : AC3 5.1 @ 384 kbps
Язык : English
Default : Нет
Forced : Нет
Текст #1
Идентификатор : 4
Формат : UTF-8
Идентификатор кодека : S_TEXT/UTF8
Идентификатор кодека/Информация : UTF-8 Plain Text
Язык : English
Default : Нет
Forced : Нет
Текст #2
Идентификатор : 5
Формат : UTF-8
Идентификатор кодека : S_TEXT/UTF8
Идентификатор кодека/Информация : UTF-8 Plain Text
Заголовок : SDH
Язык : English
Default : Нет
Forced : Нет



Релиз от:



   Похожие торренты   Торрент   Размер 
В этой теме нет новых непрочитанных сообщений. Флинстоуны: борцы каменного века / The Flintstones & WWE: Stone Age Smackdown (2015) HDRip | P | Чистый звук

287 | 17

714.35 МБ

В этой теме нет новых непрочитанных сообщений. Флинстоуны: борцы каменного века / The Flintstones and WWE: Stone Age Smackdown (2015) HDRip-AVC | P | Чистый звук

349 | 10

955.98 МБ

В этой теме нет новых непрочитанных сообщений. Флинстоуны: борцы каменного века / The Flintstones and WWE: Stone Age Smackdown (2014) BDRip 1080p | P | Чистый звук

85 | 8

2.94 ГБ

В этой теме нет новых непрочитанных сообщений. Флинстоуны: Борцы каменного века / The Flintstones and WWE: Stone Age Smackdown (2015) BDRip от HQCLUB

51 | 5

1022.29 МБ

В этой теме нет новых непрочитанных сообщений. Флинстоуны: борцы каменного века / The Flintstones and WWE: Stone Age Smackdown (2015) BDRip 1080p от Leonardo and Scarabey

66 | 12

2.55 ГБ

В этой теме нет новых непрочитанных сообщений. Флинстоуны: борцы каменного века / The Flintstones and WWE: Stone Age Smackdown (2015) BDRip 720p от Leonardo and Scarabey

120 | 9

1.12 ГБ

В этой теме нет новых непрочитанных сообщений. National Geographic: Атлантида каменного века / Stone Age Atlantis (2010) SATRip

0 | 25

1.18 ГБ




Вы не можете начинать темы
Вы не можете отвечать на сообщения
Вы не можете редактировать свои сообщения
Вы не можете удалять свои сообщения
Вы не можете добавлять вложения

Перейти:  
Для Мосгорсуда, Роскомнадзора и рекламодателей: mosgorsud-torrent[собачка]yandex.ru
 Вход
ppkBB3cker v.2 © 2008-2014 @ PPK
[ Time : 0.038s | 18 Queries | GZIP : Off ]

Торрент трекер RUTOR.IN, Не можете зайти на rutor.org? Какой новый адрес рутор? Какое зеркало рутор? Не работает rutor.org и зеркала? Тогда наш торрент специально для вас. Rutor.in неофициальное зеркало rutor. В случае если у Вас заблокирован rutor или вдруг Вы не можете на него зайти, то Вы без труда сможете скачать бесплатно и без рекламы последние новинки кино, игр, сериалов и прочего у нас, на Rutor.in. Не нужно использовать прокси, чтобы зайти на рутор, достаточно воспользоваться нашим ресурсом. Все новые фильмы, игры, сериалы, книги и музыка за 2013 и 2014 годы через торрент бесплатно. Скачивайте фильмы в хорошем качестве, игры для пк, xbox, playstation без регистрации. У нас вы найдете новые Зарубежные сериалы и Русские сериалы 2013, 2014, 2015 годов. Оставайтесь с нами, качайте любимые фильмы, игры, сериалы, книги и музыку.
cron