img image001 image001 image001 image001 image001 image001 image001 image001 image001 image001 image001 image001 image001 image001 image001

Planets Sun Sun Sun
Статистика раздачи
Автор: Nickolas3434 | Размер: 4.38 ГБ | Добавлен: 22 апр 2015
Раздают: 106    Качают: 8
Скачать торрент
Скачать торрент
Описание торрента

СообщениеДобавлено: 22 апр 2015 


Информация о фильме
    Русское название: Губка Боб - квадратные штаны
    Оригинальное название: The SpongeBob SquarePants Movie
    Год выхода: 2004
    Жанр: мультфильм, комедия, семейный
    Режиссер: Стивен Хилленбёрг, Марк Осборн
    Выпущено: США
    Продолжительность: 01:27:09
    Перевод: Дублированный
    Роль озвучивали: Том Кенни, Клэнси Браун, Роджер Бампасс, Билл Фагербакки, Мистер Лоуренс, Джилл Тэлли, Кэролин Лоуренс, Мэри Джо Кэтлетт, Джеффри Тэмбор, Скарлетт Йоханссон


Сюжет фильма
    Отважный и находчивый супергерой Губка Боб проводит глубоководное и глубокомысленное расследование кражи короны у Короля Нептуна…


Файл
    Качество: BDRip 1080p (исходник Blu-ray Disc Remux)
    Видео: 1918x1080, 6542 Кбит/сек, 23,976 кадр/сек, AVC, x264, High@L4.1, 16:9, 0.132 Бит/[Пиксели*Кадры]
    Аудио 1: AC-3, 192 Кбит/сек, 2 канала(ов), 48,0 КГц - Дублированный / Русский
    Аудио 2: AC-3, 448 Кбит/сек, 6 канала(ов), 48,0 КГц - Оригинал / Английский
    Субтитры: Английские | Полные
    Форсированные субтитры: Нет
    Чаптеры (Главы): Нет



Автор Рипа: Сообщество:



Format : Matroska
Format version : Version 2
File size : 4.38 GiB
Duration : 1h 27mn
Overall bit rate : 7 196 Kbps
Movie name : Губка Боб - квадратные штаны.(2004).BDRip.1080p.[envy]
Encoded date : UTC 2015-04-21 13:18:19
Writing application : mkvmerge v5.8.0 ('No Sleep / Pillow') built on Sep 2 2012 15:37:04
Writing library : libebml v1.2.3 + libmatroska v1.3.0
Video
ID : 1
Format : AVC
Format/Info : Advanced Video Codec
Format profile : High@L4.1
Format settings, CABAC : Yes
Format settings, ReFrames : 4 frames
Codec ID : V_MPEG4/ISO/AVC
Duration : 1h 27mn
Bit rate : 6 542 Kbps
Width : 1 918 pixels
Height : 1 080 pixels
Display aspect ratio : 16:9
Frame rate mode : Constant
Frame rate : 23.976 fps
Color space : YUV
Chroma subsampling : 4:2:0
Bit depth : 8 bits
Scan type : Progressive
Bits/(Pixel*Frame) : 0.132
Stream size : 3.90 GiB (89%)
Title : Губка Боб - квадратные штаны.(2004).BDRip.1080p.[envy]
Writing library : x264 core 146 r2538 121396c
Encoding settings : cabac=1 / ref=4 / deblock=1:0:0 / analyse=0x3:0x133 / me=umh / subme=11 / psy=1 / psy_rd=1.00:0.00 / mixed_ref=1 / me_range=48 / chroma_me=1 / trellis=2 / 8x8dct=1 / cqm=0 / deadzone=21,11 / fast_pskip=0 / chroma_qp_offset=-2 / threads=12 / lookahead_threads=1 / sliced_threads=0 / nr=0 / decimate=1 / interlaced=0 / bluray_compat=0 / constrained_intra=0 / bframes=5 / b_pyramid=2 / b_adapt=2 / b_bias=0 / direct=3 / weightb=1 / open_gop=0 / weightp=2 / keyint=240 / keyint_min=23 / scenecut=40 / intra_refresh=0 / rc=2pass / mbtree=0 / bitrate=6542 / ratetol=2.0 / qcomp=0.60 / qpmin=0 / qpmax=69 / qpstep=4 / cplxblur=20.0 / qblur=0.5 / ip_ratio=1.40 / pb_ratio=1.30 / aq=2:1.00
Language : English
Default : Yes
Forced : No
Audio #1
ID : 2
Format : AC-3
Format/Info : Audio Coding 3
Mode extension : CM (complete main)
Format settings, Endianness : Big
Codec ID : A_AC3
Duration : 1h 27mn
Bit rate mode : Constant
Bit rate : 192 Kbps
Channel(s) : 2 channels
Channel positions : Front: L R
Sampling rate : 48.0 KHz
Bit depth : 16 bits
Compression mode : Lossy
Stream size : 120 MiB (3%)
Title : Dub
Language : Russian
Default : Yes
Forced : No
Audio #2
ID : 3
Format : AC-3
Format/Info : Audio Coding 3
Mode extension : CM (complete main)
Format settings, Endianness : Big
Codec ID : A_AC3
Duration : 1h 27mn
Bit rate mode : Constant
Bit rate : 448 Kbps
Channel(s) : 6 channels
Channel positions : Front: L C R, Side: L R, LFE
Sampling rate : 48.0 KHz
Bit depth : 16 bits
Compression mode : Lossy
Stream size : 279 MiB (6%)
Title : Eng
Language : English
Default : No
Forced : No
Text
ID : 4
Format : UTF-8
Codec ID : S_TEXT/UTF8
Codec ID/Info : UTF-8 Plain Text
Title : Eng full
Language : English
Default : No
Forced : No


#77



   Похожие торренты   Торрент   Размер 
В этой теме нет новых непрочитанных сообщений. Губка Боб - квадратные штаны / The SpongeBob SquarePants Movie (2004) BDRip 720p от NNNB

301 | 10

2.18 ГБ

В этой теме нет новых непрочитанных сообщений. Губка Боб квадратные штаны / The SpongeBob SquarePants Movie (2004) BDRip-AVC | D

28 | 1

1.55 ГБ

В этой теме нет новых непрочитанных сообщений. Губка Боб - квадратные штаны / The SpongeBob SquarePants Movie (2004) BDRip от HQCLUB

883 | 37

1.45 ГБ

В этой теме нет новых непрочитанных сообщений. Губка Боб – квадратные штаны / The SpongeBob SquarePants Movie (2004) DVD9 от Youtracker

21 | 2

4.6 ГБ

В этой теме нет новых непрочитанных сообщений. Губка Боб Квадратные Штаны / The SpongeBob SquarePants Movie (2004) HDTVRip от HQ-ViDEO

48 | 7

1.46 ГБ

В этой теме нет новых непрочитанных сообщений. Губка Боб Квадратные Штаны / SpongeBob SquarePants. Выпуск 1. Губка Боб - спасатель (2002-2004) DVD5 от HitWay | Лицензия

61 | 13

4.38 ГБ

В этой теме нет новых непрочитанных сообщений. Губка Боб Квадратные Штаны: Спасатель / Spongebob Squarepants (1999-2004) DVD5 от New-Team | D | Лицензия

27 | 41

4.37 ГБ




Вы не можете начинать темы
Вы не можете отвечать на сообщения
Вы не можете редактировать свои сообщения
Вы не можете удалять свои сообщения
Вы не можете добавлять вложения

Перейти:  
Для Мосгорсуда, Роскомнадзора и рекламодателей: mosgorsud-torrent[собачка]yandex.ru
 Вход
ppkBB3cker v.2 © 2008-2014 @ PPK
[ Time : 0.519s | 15 Queries | GZIP : Off ]

Торрент трекер RUTOR.IN, Не можете зайти на rutor.org? Какой новый адрес рутор? Какое зеркало рутор? Не работает rutor.org и зеркала? Тогда наш торрент специально для вас. Rutor.in неофициальное зеркало rutor. В случае если у Вас заблокирован rutor или вдруг Вы не можете на него зайти, то Вы без труда сможете скачать бесплатно и без рекламы последние новинки кино, игр, сериалов и прочего у нас, на Rutor.in. Не нужно использовать прокси, чтобы зайти на рутор, достаточно воспользоваться нашим ресурсом. Все новые фильмы, игры, сериалы, книги и музыка за 2013 и 2014 годы через торрент бесплатно. Скачивайте фильмы в хорошем качестве, игры для пк, xbox, playstation без регистрации. У нас вы найдете новые Зарубежные сериалы и Русские сериалы 2013, 2014, 2015 годов. Оставайтесь с нами, качайте любимые фильмы, игры, сериалы, книги и музыку.