img image001 image001 image001 image001 image001 image001 image001 image001 image001 image001 image001 image001 image001 image001 image001

Planets Sun Sun Sun
Статистика раздачи
Автор: Nickolas3434 | Размер: 2.13 ГБ | Добавлен: 22 апр 2015
Раздают: 397    Качают: 26
Скачать торрент
Скачать торрент
Описание торрента

СообщениеДобавлено: 22 апр 2015 


Информация о фильме:
● Название: Злые птички
● Оригинальное название: Angry Birds Toons!
● Год выхода: 2014
● Жанр: Мультсериал, комедия
● Режиссер: Ким Хельминен
● Страна: Финляндия
● Студия: Rovio Entertainment
● Продолжительность: 01:11:30 (26 серий)
● Перевод: не требуется

Описание фильма:
Злые Птички возвращаются на большой экран! После довольно длительного перерыва, полюбившиеся зрителям герои вновь возвращаются к своим почитателям. В новом сезоне вас ожидает ещё больше приключений, комичных ситуаций и конечно же извечная борьба Птичек с их главными врагами - Зелёными Свиньями. Добро пожаловать во второй сезон Angry Birds Toons!
Информация о файле:
● Кодек: AVC
● Формат: mp4
● Качество: WEBRip
● Видео: 1280x720 (16:9), 24.000 fps, AVC ~4000 kbps, 0.18 bit/pixel
● Аудио: 48 kHz, AAC, 2/0 (L,R) ch, 128 kbps

Релиз от:
01. Treasure Hunt
02. Sweets Of Doom
03. Party Ahoy
04. Hide And Seek
05. Sink or Swim
06. Super Bomb
07. Just So
08. The Miracle Of Life
09. Cave Pig
10. Joy To The Pigs
11. Dogzilla
12. Boulder Pro
13. Chuckmania
14. Not Without My Helmet
15. Mona Litha
16. Sir Bomb Of Hamelot
17. Bearded Ambition
18. Cold Justice
19. Slow The Chuck Down
20. Brutal Vs Brutal
21. Eating Out
22. The Great Eggscape
23. Sleep Like A Hog
24. Bombina
25. Pig Possessed
26. Epic Sax Off
MediaInfoLib - v0.7.62
General
Complete name: D:MR_eng_seriesAngry Birds Toons! s02. 2014. mp4. WEBRip (1280x720)s02e01. Treasure Hunt.mp4
Format: MPEG-4
Format profile: Base Media
Codec ID: isom
File size: 85.0 MiB
Duration: 2mn 45s
Overall bit rate: 4 321 Kbps
Writing application: Lavf55.33.100
Video
ID: 2
Format: AVC
Format/Info: Advanced Video Codec
Format profile: Baseline@L3.1
Format settings, CABAC: No
Format settings, ReFrames: 3 frames
Format settings, GOP: M=1, N=90
Codec ID: avc1
Codec ID/Info: Advanced Video Coding
Duration: 2mn 45s
Bit rate: 4 000 Kbps
Width: 1 280 pixels
Height: 720 pixels
Display aspect ratio: 16:9
Frame rate mode: Constant
Frame rate: 24.000 fps
Color space: YUV
Chroma subsampling: 4:2:0
Bit depth: 8 bits
Scan type: Progressive
Bits/(Pixel*Frame): 0.181
Stream size: 82.4 MiB (97%)
Writing library: x264 core 140
Encoding settings: cabac=0 / ref=3 / deblock=1:0:0 / analyse=0x1:0x111 / me=hex / subme=10 / psy=1 / psy_rd=1.00:0.00 / mixed_ref=1 / me_range=16 / chroma_me=1 / trellis=2 / 8x8dct=0 / cqm=0 / deadzone=21,11 / fast_pskip=1 / chroma_qp_offset=-2 / threads=48 / lookahead_threads=4 / sliced_threads=0 / nr=0 / decimate=1 / interlaced=0 / bluray_compat=0 / constrained_intra=0 / bframes=0 / weightp=0 / keyint=90 / keyint_min=9 / scenecut=0 / intra_refresh=0 / rc_lookahead=40 / rc=abr / mbtree=1 / bitrate=4000 / ratetol=1.0 / qcomp=0.60 / qpmin=0 / qpmax=69 / qpstep=4 / ip_ratio=1.40 / aq=1:1.00
Language: English
Audio
ID: 1
Format: AAC
Format/Info: Advanced Audio Codec
Format profile: LC
Codec ID: 40
Duration: 2mn 45s
Duration_LastFrame: -13ms
Bit rate mode: Constant
Bit rate: 128 Kbps
Channel(s): 2 channels
Channel positions: Front: L R
Sampling rate: 48.0 KHz
Compression mode: Lossy
Stream size: 2.52 MiB (3%)
Language: English
Когда раздача ведётся путём добавления новых серий, при каждом добавлении создётся новый торрент. Чтобы начать докачку новой серии, пользователям необходимо сделать следующее:
(1) остановить скачивание,
(2) удалить старый торрент у себя из клиента (старые серии удалять не надо),
(3) скачать новый торрент и запустить его у себя в клиенте вместо старого, при этом указать клиенту путь в старую папку, куда и должно происходить скачивание новых серий.
Ваш клиент при этом должен произвести хеширование (проверку) старой папки (если не производит сам - помогите ему сделать это), и будет докачивать только те серии, которых у вас ещё нет. Старые серии при этом не удаляются, а продолжают раздаваться!
Eсли вы уже удалили старые серии, то предотвратить повторную закачку старых серий можно, отжав галочку в соответсвующих местах при запуске нового торрента. По возможности, желательно не удалять старые серии как можно дольше, чтобы релизёр не столько продолжал раздавать старые серии, а смог сконцентрироваться на новых.



   Похожие торренты   Торрент   Размер 
В этой теме нет новых непрочитанных сообщений. Злые птички / Angry Birds Toons! [02x01-26] (2014) WEBRip

347 | 23

824.41 МБ

В этой теме нет новых непрочитанных сообщений. Злые птички / Angry Birds Toons! [02x01-24] (2014) WEBRip

158 | 19

760.99 МБ

В этой теме нет новых непрочитанных сообщений. Злые птички / Angry Birds Toons [01-52 из 52] (2013) WEB-DL 720p | P1

633 | 210

3.77 ГБ

В этой теме нет новых непрочитанных сообщений. Злые птички / Angry Birds Toons [01-48 из 52 + Бонусы] (2013) WEB-DL 720p

102 | 170

4.43 ГБ

В этой теме нет новых непрочитанных сообщений. Злые птички / Angry Birds Toons [01-19 из 52 + Бонусы] (2013) WEB-DL 720p

11 | 4

1.41 ГБ

В этой теме нет новых непрочитанных сообщений. Злые птички / Angry Birds Toons [01-52 из 52 + Бонусы] (2013) WEB-DL 720p

343 | 40

4.94 ГБ

В этой теме нет новых непрочитанных сообщений. Злые птички / Angry Birds Toons [01-52 из 52 ] (2013-2014) 2 x DVD5 от New-Team | Лицензия

39 | 109

6.89 ГБ




Вы не можете начинать темы
Вы не можете отвечать на сообщения
Вы не можете редактировать свои сообщения
Вы не можете удалять свои сообщения
Вы не можете добавлять вложения

Перейти:  
Для Мосгорсуда, Роскомнадзора и рекламодателей: mosgorsud-torrent[собачка]yandex.ru
 Вход
ppkBB3cker v.2 © 2008-2014 @ PPK
[ Time : 0.035s | 14 Queries | GZIP : Off ]

Торрент трекер RUTOR.IN, Не можете зайти на rutor.org? Какой новый адрес рутор? Какое зеркало рутор? Не работает rutor.org и зеркала? Тогда наш торрент специально для вас. Rutor.in неофициальное зеркало rutor. В случае если у Вас заблокирован rutor или вдруг Вы не можете на него зайти, то Вы без труда сможете скачать бесплатно и без рекламы последние новинки кино, игр, сериалов и прочего у нас, на Rutor.in. Не нужно использовать прокси, чтобы зайти на рутор, достаточно воспользоваться нашим ресурсом. Все новые фильмы, игры, сериалы, книги и музыка за 2013 и 2014 годы через торрент бесплатно. Скачивайте фильмы в хорошем качестве, игры для пк, xbox, playstation без регистрации. У нас вы найдете новые Зарубежные сериалы и Русские сериалы 2013, 2014, 2015 годов. Оставайтесь с нами, качайте любимые фильмы, игры, сериалы, книги и музыку.