img image001 image001 image001 image001 image001 image001 image001 image001 image001 image001 image001 image001 image001 image001 image001

Planets Sun Sun Sun
Статистика раздачи
Автор: Nickolas3434 | Размер: 1.38 ГБ | Добавлен: 25 апр 2015
Раздают: 321    Качают: 7
Скачать торрент
Скачать торрент
Описание торрента

СообщениеДобавлено: 25 апр 2015 


Информация о фильме
Название: Оз: Нашествие летучих обезьян
Оригинальное название: Guardianes de Oz
Год выхода: 2015
Жанр: мультфильм, фэнтези, приключения
Режиссер: Альберто Мар
В ролях: Рауль Араиса, Раймундо Армихо, Ямил Атала, Бруно Коронел, Магда Хинер, Себастьян Льяпур, Мойсес Иван Мора, Лорето Пералта, Salvador Reyes, Хорхе Ван Ранкин
О фильме:
Вы помните, как все начиналось? Давным-давно в страну Оз прилетела юная героиня, ее звали Дороти, она смогла победить Коварную Ведьму Запада и добрая волшебница Глинда помогла ей вернуться домой. А друзья Дороти — Страшила, Железный Дровосек и Смелый Лев — стали правителями страны Оз. И все в волшебной стране было хорошо, пока Глинда по своей доброте не решила дать Коварной Ведьме Запада еще один шанс.
Чары Злодейки поместили в метлу, а метлу передали Правителям. Но злая ведьма — есть злая ведьма, даже без своих чар… Знакомая с детства история, продолжение которой рассказывает маленькая летающая обезьянка, которая на самом деле не умеет летать и не хочет служить Коварной Ведьме Запада.

Страна: Индия, Мексика
Студия: Anima Estudios, Discreet Arts Productions
Продолжительность: 01:27:21
Перевод: Дублированное Чистый звук
Файл
Кодек: MPEG-4 AVC (MKV)
Качество: HDRip-AVC
Видео: AVC, 1024x544, 2000 Kbps
Звук: AC3, 2 ch, 256 Kbps
Субтитры: нет

General
Unique ID : 209960659323865637937334080451754303402 (0x9DF4F3BC6680BD65D59BF0A9B75B9FAA)
Complete name : G:ДИСК 2�4.МУЛЬТФИЛЬМЫОз Нашествие летучих обезьян Guardianes de Oz (2015)Guardianes de Oz (2015) HDRip-AVC.mkv
Format : Matroska
Format version : Version 2
File size : 1.38 GiB
Duration : 1h 27mn
Overall bit rate : 2 260 Kbps
Movie name : Release by ARHANGEL
Encoded date : UTC 2015-04-24 05:57:10
Writing application : XviD4PSP 6.0 / 54.29.105
Writing library : XviD4PSP 6.0 / 54.29.105
Video
ID : 1
Format : AVC
Format/Info : Advanced Video Codec
Format profile : High@L4.1
Format settings, CABAC : Yes
Format settings, ReFrames : 7 frames
Codec ID : V_MPEG4/ISO/AVC
Duration : 1h 27mn
Bit rate : 2 000 Kbps
Width : 1 024 pixels
Height : 544 pixels
Display aspect ratio : 1.85:1
Frame rate mode : Constant
Frame rate : 24.000 fps
Color space : YUV
Chroma subsampling : 4:2:0
Bit depth : 8 bits
Scan type : Progressive
Bits/(Pixel*Frame) : 0.150
Stream size : 1.20 GiB (87%)
Writing library : x264 core 128 r2216M 198a7ea
Encoding settings : cabac=1 / ref=8 / deblock=1:-3:-3 / analyse=0x3:0x133 / me=umh / subme=8 / psy=0 / mixed_ref=1 / me_range=32 / chroma_me=1 / trellis=2 / 8x8dct=1 / cqm=0 / deadzone=21,11 / fast_pskip=1 / chroma_qp_offset=0 / threads=4 / lookahead_threads=1 / sliced_threads=0 / nr=0 / decimate=1 / interlaced=0 / bluray_compat=0 / constrained_intra=0 / bframes=8 / b_pyramid=1 / b_adapt=2 / b_bias=0 / direct=3 / weightb=1 / open_gop=0 / weightp=2 / keyint=240 / keyint_min=24 / scenecut=40 / intra_refresh=0 / rc_lookahead=40 / rc=2pass / mbtree=1 / bitrate=2000 / ratetol=1.0 / qcomp=0.60 / qpmin=0 / qpmax=69 / qpstep=4 / cplxblur=20.0 / qblur=0.5 / ip_ratio=1.40 / aq=1:1.00
Language : English
Default : Yes
Forced : No
_STATISTICS_TAGS : BPS DURATION NUMBER_OF_FRAMES NUMBER_OF_BYTES
_STATISTICS_WRITING_APP : mkvmerge v7.7.0 ('Six Voices') 32bit built on Feb 28 2015 23:23:00
_STATISTICS_WRITING_DATE_UTC : 2015-04-24 05:57:10
NUMBER_OF_BYTES : 654772448
DURATION : 01:27:21.209000000
NUMBER_OF_FRAMES : 125789
Audio
ID : 2
Format : AC-3
Format/Info : Audio Coding 3
Mode extension : CM (complete main)
Format settings, Endianness : Big
Codec ID : A_AC3
Duration : 1h 27mn
Bit rate mode : Constant
Bit rate : 256 Kbps
Channel(s) : 2 channels
Channel positions : Front: L R
Sampling rate : 48.0 KHz
Bit depth : 16 bits
Compression mode : Lossy
Delay relative to video : 27ms
Stream size : 160 MiB (11%)
Language : Russian
Default : Yes
Forced : No
_STATISTICS_TAGS : BPS DURATION NUMBER_OF_FRAMES NUMBER_OF_BYTES
_STATISTICS_WRITING_DATE_UTC : 2015-04-24 05:57:10
_STATISTICS_WRITING_APP : mkvmerge v7.7.0 ('Six Voices') 32bit built on Feb 28 2015 23:23:00
NUMBER_OF_BYTES : 167708672
DURATION : 01:27:20.896000000
NUMBER_OF_FRAMES : 163778

Релиз от:



   Похожие торренты   Торрент   Размер 
В этой теме нет новых непрочитанных сообщений. Оз: Нашествие летучих обезьян / Guardianes de Oz (2015) HDRip | Чистый звук

1143 | 31

1.37 ГБ

В этой теме нет новых непрочитанных сообщений. Оз: Нашествие летучих обезьян / Guardianes de Oz (2015) HDRip-AVC | D

315 | 24

744.91 МБ

В этой теме нет новых непрочитанных сообщений. Оз: Нашествие летучих обезьян / Guardianes de Oz (2015) HDRip-AVC от New-Team | D | Лицензия

375 | 19

1.45 ГБ

В этой теме нет новых непрочитанных сообщений. Оз: Нашествие летучих обезьян / Guardianes de Oz (2015) HDRip от Fox 2015 | КПК | Лицензия

208 | 12

362.55 МБ

В этой теме нет новых непрочитанных сообщений. Планета обезьян: Революция / Dawn of the Planet of the Apes (2014) WEB-DL 720p | Чистый звук

8967 | 757

4.54 ГБ

В этой теме нет новых непрочитанных сообщений. Планета обезьян: Революция / Dawn of the Planet of the Apes (2014) WEB-DLRip | Чистый звук

7651 | 418

2.05 ГБ

В этой теме нет новых непрочитанных сообщений. Планета обезьян: Революция / Dawn of the Planet of the Apes (2014) WEB-DLRip-AVC | Чистый звук

184 | 18

2.87 ГБ




Вы не можете начинать темы
Вы не можете отвечать на сообщения
Вы не можете редактировать свои сообщения
Вы не можете удалять свои сообщения
Вы не можете добавлять вложения

Перейти:  
Для Мосгорсуда, Роскомнадзора и рекламодателей: mosgorsud-torrent[собачка]yandex.ru
 Вход
ppkBB3cker v.2 © 2008-2014 @ PPK
[ Time : 0.036s | 15 Queries | GZIP : Off ]

Торрент трекер RUTOR.IN, Не можете зайти на rutor.org? Какой новый адрес рутор? Какое зеркало рутор? Не работает rutor.org и зеркала? Тогда наш торрент специально для вас. Rutor.in неофициальное зеркало rutor. В случае если у Вас заблокирован rutor или вдруг Вы не можете на него зайти, то Вы без труда сможете скачать бесплатно и без рекламы последние новинки кино, игр, сериалов и прочего у нас, на Rutor.in. Не нужно использовать прокси, чтобы зайти на рутор, достаточно воспользоваться нашим ресурсом. Все новые фильмы, игры, сериалы, книги и музыка за 2013 и 2014 годы через торрент бесплатно. Скачивайте фильмы в хорошем качестве, игры для пк, xbox, playstation без регистрации. У нас вы найдете новые Зарубежные сериалы и Русские сериалы 2013, 2014, 2015 годов. Оставайтесь с нами, качайте любимые фильмы, игры, сериалы, книги и музыку.
cron