img image001 image001 image001 image001 image001 image001 image001 image001 image001 image001 image001 image001 image001 image001 image001

Planets Sun Sun Sun
Статистика раздачи
Автор: Nickolas3434 | Размер: 11.27 ГБ | Добавлен: 30 апр 2015
Раздают: 61    Качают: 7
Скачать торрент
Скачать торрент
Описание торрента

СообщениеДобавлено: 30 апр 2015 


Информация о фильме
Название: Белоснежка и семь гномов
Оригинальное название: Snow White and the Seven Dwarfs
Год выхода: 1937
Жанр: мультфильм, мюзикл, фэнтези, мелодрама, семейный
Режиссер: Уильям Коттрелл, Дэвид Хэнд, Уилфред Джексон
В ролях: Рой Этвелл, Стюарт Бьюкэнэн, Адриана Каселотти, Холл Джонсон Шор, Эдди Коллинз, Пинто Колвиг, Мэрион Дарлингтон, Билли Гилберт, Отис Хэрлан, Люсиль Ла Верн
О фильме:
Экранизация знаменитой немецкой сказки братьев Гримм о Белоснежке, жившей в замке со злой мачехой-королевой, которая очень гордилась своей красотой. Узнав от волшебного зеркальца, что Белоснежка стала самой прекрасной девушкой на свете, завистница решила погубить прелестную падчерицу. Но бедная девушка не погибла в лесу, а наоборот, встретила там настоящих друзей — забавных семерых гномов: Профессора, Ворчуна, Весельчака, Скромника, Чихоню, Соню и Молчуна…


Нет возрастных ограничений
Страна: США
Студия: Walt Disney Productions
Продолжительность: 80 мин. / 01:20
Перевод: полное дублирование
Файл
Кодек: MPEG2
Качество: 2xDVD9 "Уолт Дисней Компани СНГ"
Видео: PAL 4:3 (720x576@768x576) VBR 5947 Kbps, 25.000 fps
Аудио 1: Dolby AC3, 6 ch, 48.0 KHz, 448 Kbps (русский, английский, иврит)
Аудио 2: Dolby AC3, 1 ch, 48.0 KHz, 96 Kbps (комментарии Уолта Диснея)
Субтитры: русские, украинские, английские, эстонские, латышские, литовские, иврит
DVD 1:
- Аудио комментарии Уолта Диснея
DVD 2:
- Белоснежка возвращается. Удаленные сцены
- «Принцесса и лягушка». Трейлер
- Музыкальное видео: Тиффани Торнтон ''Знаю, мой принц придет'' - ''Someday My Prince Will Come''. Tiffany Thornton
Дополнительные материалы к классическому DVD:
- Игра: Сумасшедшая поездка Простачка по рудникам
- Озвучание фильма
- «Хай-Хо» Караоке
- История Disney: ''Десятилетие за десятилетием''
General
Complete name : D:SNOW_WHITE_2DVD9DVD1VIDEO_TSVTS_07_1.VOB
Format : MPEG-PS
File size : 1 024 MiB
Duration : 18mn 59s
Overall bit rate mode : Variable
Overall bit rate : 7 537 Kbps
Video
ID : 224 (0xE0)
Format : MPEG Video
Format version : Version 2
Format profile : Main@Main
Format settings, BVOP : Yes
Format settings, Matrix : Custom
Format settings, GOP : Variable
Duration : 18mn 59s
Bit rate mode : Variable
Bit rate : 5 947 Kbps
Maximum bit rate : 9 800 Kbps
Width : 720 pixels
Height : 576 pixels
Display aspect ratio : 4:3
Frame rate : 25.000 fps
Standard : Component
Color space : YUV
Chroma subsampling : 4:2:0
Bit depth : 8 bits
Compression mode : Lossy
Bits/(Pixel*Frame) : 0.574
Time code of first frame : 00:00:00:00
Time code source : Group of pictures header
Stream size : 808 MiB (79%)
Color primaries : BT.601 PAL
Transfer characteristics : BT.470 System B, BT.470 System G
Matrix coefficients : BT.601
Audio #1
ID : 189 (0xBD)-128 (0x80)
Format : AC-3
Format/Info : Audio Coding 3
Mode extension : CM (complete main)
Format settings, Endianness : Big
Muxing mode : DVD-Video
Duration : 18mn 59s
Bit rate mode : Constant
Bit rate : 448 Kbps
Channel(s) : 6 channels
Channel positions : Front: L C R, Side: L R, LFE
Sampling rate : 48.0 KHz
Compression mode : Lossy
Delay relative to video : 53ms
Stream size : 60.8 MiB (6%)
Audio #2
ID : 189 (0xBD)-129 (0x81)
Format : AC-3
Format/Info : Audio Coding 3
Mode extension : CM (complete main)
Format settings, Endianness : Big
Muxing mode : DVD-Video
Duration : 18mn 59s
Bit rate mode : Constant
Bit rate : 448 Kbps
Channel(s) : 6 channels
Channel positions : Front: L C R, Side: L R, LFE
Sampling rate : 48.0 KHz
Compression mode : Lossy
Delay relative to video : 53ms
Stream size : 60.8 MiB (6%)
Audio #3
ID : 189 (0xBD)-130 (0x82)
Format : AC-3
Format/Info : Audio Coding 3
Mode extension : CM (complete main)
Format settings, Endianness : Big
Muxing mode : DVD-Video
Duration : 18mn 59s
Bit rate mode : Constant
Bit rate : 448 Kbps
Channel(s) : 6 channels
Channel positions : Front: L C R, Side: L R, LFE
Sampling rate : 48.0 KHz
Compression mode : Lossy
Delay relative to video : 53ms
Stream size : 60.8 MiB (6%)
Audio #4
ID : 189 (0xBD)-131 (0x83)
Format : AC-3
Format/Info : Audio Coding 3
Mode extension : CM (complete main)
Format settings, Endianness : Big
Muxing mode : DVD-Video
Duration : 18mn 59s
Bit rate mode : Constant
Bit rate : 96.0 Kbps
Channel(s) : 1 channel
Channel positions : Front: C
Sampling rate : 48.0 KHz
Compression mode : Lossy
Delay relative to video : 53ms
Stream size : 13.0 MiB (1%)
Text #1
ID : 189 (0xBD)-42 (0x2A)
Format : RLE
Format/Info : Run-length encoding
Muxing mode : DVD-Video
Duration : 18mn 55s
Delay relative to video : 1s 693ms
Text #2
ID : 189 (0xBD)-43 (0x2B)
Format : RLE
Format/Info : Run-length encoding
Muxing mode : DVD-Video
Duration : 18mn 55s
Delay relative to video : 1s 693ms
Text #3
ID : 189 (0xBD)-44 (0x2C)
Format : RLE
Format/Info : Run-length encoding
Muxing mode : DVD-Video
Duration : 18mn 56s
Delay relative to video : 1s 693ms
Menu




   Похожие торренты   Торрент   Размер 
В этой теме нет новых непрочитанных сообщений. Белоснежка и семь гномов / Snow White and the Seven Dwarfs (1937) DVD5

6 | 5

4.1 ГБ

В этой теме нет новых непрочитанных сообщений. Белоснежка и семь гномов / Snow White and the Seven Dwarfs (1937) BDRip 1080p | 60 fps

83 | 17

6.07 ГБ

В этой теме нет новых непрочитанных сообщений. Белоснежка и семь гномов / Snow White and the Seven Dwarfs (1937) BDRip 720p | 60 fps

119 | 16

4.06 ГБ

В этой теме нет новых непрочитанных сообщений. Белоснежка и семь гномов / Snow White and the Seven Dwarfs (1937) BDRip от HELLYWOOD

159 | 13

1.45 ГБ

В этой теме нет новых непрочитанных сообщений. Белоснежка и семь гномов / Snow White and the Seven Dwarfs (1937) HDRip от AndrewWhite

79 | 4

1.46 ГБ

В этой теме нет новых непрочитанных сообщений. Белоснежка и семь гномов / Snow White and the Seven Dwarfs (1937) BDRip от MediaClub | КПК

249 | 11

375.31 МБ

В этой теме нет новых непрочитанных сообщений. Белоснежка и семь гномов / Snow White and the Seven Dwarfs (1937) BDRip-AVC от 0ptimus | D

649 | 10

1.51 ГБ




Вы не можете начинать темы
Вы не можете отвечать на сообщения
Вы не можете редактировать свои сообщения
Вы не можете удалять свои сообщения
Вы не можете добавлять вложения

Перейти:  
Для Мосгорсуда, Роскомнадзора и рекламодателей: mosgorsud-torrent[собачка]yandex.ru
 Вход
ppkBB3cker v.2 © 2008-2014 @ PPK
[ Time : 0.907s | 14 Queries | GZIP : On ]

Торрент трекер RUTOR.IN, Не можете зайти на rutor.org? Какой новый адрес рутор? Какое зеркало рутор? Не работает rutor.org и зеркала? Тогда наш торрент специально для вас. Rutor.in неофициальное зеркало rutor. В случае если у Вас заблокирован rutor или вдруг Вы не можете на него зайти, то Вы без труда сможете скачать бесплатно и без рекламы последние новинки кино, игр, сериалов и прочего у нас, на Rutor.in. Не нужно использовать прокси, чтобы зайти на рутор, достаточно воспользоваться нашим ресурсом. Все новые фильмы, игры, сериалы, книги и музыка за 2013 и 2014 годы через торрент бесплатно. Скачивайте фильмы в хорошем качестве, игры для пк, xbox, playstation без регистрации. У нас вы найдете новые Зарубежные сериалы и Русские сериалы 2013, 2014, 2015 годов. Оставайтесь с нами, качайте любимые фильмы, игры, сериалы, книги и музыку.