img image001 image001 image001 image001 image001 image001 image001 image001 image001 image001 image001 image001 image001 image001 image001

Planets Sun Sun Sun
Статистика раздачи
Автор: Nickolas3434 | Размер: 9.33 ГБ | Добавлен: 01 май 2015
Раздают: 101    Качают: 305
Скачать торрент
Скачать торрент
Описание торрента

СообщениеДобавлено: 01 май 2015 


Год выпуска: 2009-2015
Страна: Россия
Жанр: мультфильм, комедия, семейный
Продолжительность: 49x ~00:07:00, 26x ~00:06:00, 4x ~00:05:40
Перевод: Оригинал (русский)
Описание: Маша — невероятно активная девочка, которая никогда не сидит на месте и считает, что весь мир создан для неё одной. Машина индивидуальность не знает границ, поэтому урок труда легко оборачивается строительством парусного корабля, а набор художника — в разукрашивание всего леса.
Автор рипа:
Релиз-группа:



Год выпуска: 2009-2015
Страна: Россия
Жанр: мультфильм, комедия, семейный
Продолжительность: 49x ~00:07:00
Перевод: Оригинал (русский)
Режиссер: Олег Кузовков, Олег Ужинов, Денис Червяцов
В ролях: Алина Кукушкина, Борис Кутневич, Эдуард Назаров, Марк Кутневич, Марк Кутневич
Описание: Маша — невероятно активная девочка, которая никогда не сидит на месте и считает, что весь мир создан для неё одной. Машина индивидуальность не знает границ, поэтому урок труда легко оборачивается строительством парусного корабля, а набор художника — в разукрашивание всего леса.

Видео кодек: MPEG-4 AVC
Качество: BDRip 720p
Параметры Видео: 1280x720, 24.000 fps; ~1 424-3 048 kbps avg
Параметры Звука: 48.0 KHz, AAC, ~128.00 kbps avg, 2ch
Формат: mp4
01. Первая встреча
02. Раз, два, три! Ёлочка, гори
03. До весны не будить
04. Ловись рыбка
05. Весна пришла
06. Следы невиданных зверей
07. С волками жить
08. Позвони мне, позвони
09. День варенья
10. Праздник на льду
11. Первый раз в первый класс
12. Граница на замке
13. Кто не спрятался, я не виноват
14. Лыжню
15. Будьте здорОвы
16. Маша + каша
17. Дальний родственник
18. Большая стирка
19. Репетиция оркестра
20. Усатый-полосатый
21. Один дома
22. Дышите! Не дышите
23. Подкидыш!
24. Приятного аппетита
25. Фокус-покус
26. Осторожно, ремонт
27. Картина маслом
28. Ход конём
29. Хит сезона
30. Витамин роста
31. Новая метла
32. Когда все дома
33. Сладкая жизнь
34. Фотография 9х12
35. Трудно быть маленьким
36. Двое на одного
37. Большое путешествие
38. Нынче всё наоборот
39. Сказка на ночь
40. Красота - страшная сила
41. Дело в шляпе
42. День кино
43. Героями не рождаются
44. Раз в году
45. Запутанная история
46. Учитель танцев
47. Крик победы
48. Пещерный медведь
49. Дорогая передача



General
Complete name : E:VideoRipMasha.i.Medved.Vse.serii.O.BDRip.720p_KinoGadgetMasha.i.Medved.O.BDRip.720p_KinoGadgetMasha.i.Medved.01.O.BDRip.720p_KinoGadget.and.KinoXa.mp4
Format : MPEG-4
Format profile : Base Media
Codec ID : isom
File size : 174 MiB
Duration : 6mn 53s
Overall bit rate mode : Variable
Overall bit rate : 3 526 Kbps
Movie name : Маша и Медведь
Performer : Олег Ужинов, Денис Червяцов, Марина Нефедова, Олег Кузовков
Genre : Action, Adventure, Animation
ContentType : Short Film
Recorded date : 2009-2015
Encoded date : UTC 2015-04-26 12:29:17
Tagged date : UTC 2015-04-30 10:09:17
Cover : Yes
LongDeion : Маша — невероятно активная девочка, которая никогда не сидит на месте и считает, что весь мир создан для неё одной. Машина индивидуальность не знает границ, поэтому урок труда легко оборачивается строительством парусного корабля, а набор художника — в разукрашивание всего леса.
HDVideo : Yes
Video
ID : 1
Format : AVC
Format/Info : Advanced Video Codec
Format profile : High@L4.1
Format settings, CABAC : Yes
Format settings, ReFrames : 11 frames
Codec ID : avc1
Codec ID/Info : Advanced Video Coding
Duration : 6mn 53s
Bit rate : 3 048 Kbps
Maximum bit rate : 11.7 Mbps
Width : 1 280 pixels
Height : 720 pixels
Display aspect ratio : 16:9
Frame rate mode : Constant
Frame rate : 24.000 fps
Color space : YUV
Chroma subsampling : 4:2:0
Bit depth : 8 bits
Scan type : Progressive
Bits/(Pixel*Frame) : 0.138
Stream size : 150 MiB (86%)
Writing library : x264 core 130 r2273 b3065e6
Encoding settings : cabac=1 / ref=11 / deblock=1:-2:-1 / analyse=0x3:0x133 / me=umh / subme=9 / psy=1 / psy_rd=1.00:0.20 / mixed_ref=1 / me_range=32 / chroma_me=1 / trellis=2 / 8x8dct=1 / cqm=0 / deadzone=21,11 / fast_pskip=0 / chroma_qp_offset=-3 / threads=3 / lookahead_threads=1 / sliced_threads=0 / nr=0 / decimate=1 / interlaced=0 / bluray_compat=0 / constrained_intra=0 / bframes=16 / b_pyramid=2 / b_adapt=2 / b_bias=0 / direct=3 / weightb=1 / open_gop=0 / weightp=2 / keyint=250 / keyint_min=23 / scenecut=40 / intra_refresh=0 / rc_lookahead=60 / rc=crf / mbtree=1 / crf=21.0 / qcomp=0.60 / qpmin=0 / qpmax=69 / qpstep=4 / ip_ratio=1.40 / aq=1:0.50
Encoded date : UTC 2015-04-26 12:29:17
Tagged date : UTC 2015-04-26 12:29:20
Audio
ID : 2
Format : AAC
Format/Info : Advanced Audio Codec
Format profile : LC
Codec ID : 40
Duration : 6mn 53s
Bit rate mode : Variable
Bit rate : 468 Kbps
Maximum bit rate : 498 Kbps
Channel count : 2 channels
Original Channel count : 6 channels
Channel positions : Front: L C R, Side: L R, LFE
Sampling rate : 48.0 KHz
Compression mode : Lossy
Delay relative to video : 83ms
Stream size : 23.0 MiB (13%)
Encoded date : UTC 2015-04-26 12:29:20
Tagged date : UTC 2015-04-26 12:29:20





#77
Год выпуска: 2011
Страна: Россия
Жанр: мультфильм, комедия, семейный
Продолжительность: 26x ~00:06:00
Перевод: Оригинал (русский)
Режиссер: Ринат Газизов, Денис Червяцов
В ролях: Алина Кукушкина
Описание: Маша рассказывает своим игрушкам известные сказки народов мира в неповторимой детской манере — путая сюжеты и героев и завершая каждую историю неожиданным и остроумным выводом.

Видео кодек: MPEG-4 AVC
Качество: BDRip 720p
Параметры Видео: 1280x720, 24.000 fps; ~1 149-2 206 kbps avg
Параметры Звука: 48.0 KHz, AAC, ~128.00 kbps avg, 2ch
Формат: mp4
01. Волк и семеро козлят
02. Гуси-лебеди
03. Красная шапочка
04. Лиса и заяц
05. Морозко
06. Волк и лиса
07. Вершки и корешки
08. Царевна-лягушка
09. Снегурочка
10. Мальчик с пальчик
11. Крошечка-хаврошечка
12. Бычок смоляной бочок
13. Три поросенка
14. Храбрый портняжка
15. Али-Баба
16. Золушка
17. Калиф-Аист
18. Джек и бобовое зернышко
19. Свинопас
20. Синяя борода
21. По щучьему велению
22. Лисичка со скалочкой
23. Каша из топора
24. Пойди туда - не знаю куда, принеси то - не знаю что
25. Петушок - Золотой гребешок
26. Конек-Горбунок



General
Complete name : E:VideoRipMasha.i.Medved.Vse.serii.O.BDRip.720p_KinoGadgetMashiny.Skazki.O.BDRip.720p_KinoGadget15. Али Баба!.O.BDRip.720p_KinoGadget.and.KinoXa.mp4
Format : MPEG-4
Format profile : Base Media
Codec ID : isom
File size : 97.9 MiB
Duration : 5mn 49s
Overall bit rate mode : Variable
Overall bit rate : 2 354 Kbps
Movie name : Машины сказки
Performer : Ринат Газизов, Денис Червяцов
Genre : Animation
ContentType : Short Film
Recorded date : 2011
Encoded date : UTC 2015-04-29 12:56:34
Tagged date : UTC 2015-04-30 10:31:02
Cover : Yes
LongDeion : Маша рассказывает своим игрушкам известные сказки народов мира в неповторимой детской манере — путая сюжеты и героев и завершая каждую историю неожиданным и остроумным выводом.
HDVideo : Yes
Video
ID : 1
Format : AVC
Format/Info : Advanced Video Codec
Format profile : High@L4.1
Format settings, CABAC : Yes
Format settings, ReFrames : 11 frames
Codec ID : avc1
Codec ID/Info : Advanced Video Coding
Duration : 5mn 49s
Bit rate : 2 206 Kbps
Maximum bit rate : 9 975 Kbps
Width : 1 280 pixels
Height : 720 pixels
Display aspect ratio : 16:9
Frame rate mode : Constant
Frame rate : 24.000 fps
Color space : YUV
Chroma subsampling : 4:2:0
Bit depth : 8 bits
Scan type : Progressive
Bits/(Pixel*Frame) : 0.100
Stream size : 91.8 MiB (94%)
Writing library : x264 core 130 r2273 b3065e6
Encoding settings : cabac=1 / ref=11 / deblock=1:-2:-1 / analyse=0x3:0x133 / me=umh / subme=9 / psy=1 / psy_rd=1.00:0.20 / mixed_ref=1 / me_range=32 / chroma_me=1 / trellis=2 / 8x8dct=1 / cqm=0 / deadzone=21,11 / fast_pskip=0 / chroma_qp_offset=-3 / threads=3 / lookahead_threads=1 / sliced_threads=0 / nr=0 / decimate=1 / interlaced=0 / bluray_compat=0 / constrained_intra=0 / bframes=16 / b_pyramid=2 / b_adapt=2 / b_bias=0 / direct=3 / weightb=1 / open_gop=0 / weightp=2 / keyint=250 / keyint_min=23 / scenecut=40 / intra_refresh=0 / rc_lookahead=60 / rc=crf / mbtree=1 / crf=21.0 / qcomp=0.60 / qpmin=0 / qpmax=69 / qpstep=4 / ip_ratio=1.40 / aq=1:0.10
Encoded date : UTC 2015-04-29 12:56:34
Tagged date : UTC 2015-04-29 12:56:36
Audio
ID : 2
Format : AAC
Format/Info : Advanced Audio Codec
Format profile : LC
Codec ID : 40
Duration : 5mn 49s
Bit rate mode : Variable
Bit rate : 128 Kbps
Maximum bit rate : 176 Kbps
Channel count : 2 channels
Channel positions : Front: L R
Sampling rate : 48.0 KHz
Compression mode : Lossy
Delay relative to video : 83ms
Stream size : 5.33 MiB (5%)
Encoded date : UTC 2015-04-29 12:56:36
Tagged date : UTC 2015-04-29 12:56:36





#77
Год выпуска: 2014
Страна: Россия
Жанр: мультфильм, комедия, семейный
Продолжительность: 4x ~00:05:40
Перевод: Оригинал (русский)
Режиссер: Олег Кузовков, Денис Червяцов, Ринат Газизов
Описание: Маша решила взяться за новый жанр — теперь она рассказывает страшилки! В своей неповторимой детской манере она раскрывает маленьким зрителям главный секрет: все страшилки живут лишь в нашем воображении. Играя и рассказывая пугающие истории, Маша учит малышей ничего не бояться. Она объясняет, откуда именно берутся самые распространённые детские страхи и как с ними бороться.

Видео кодек: MPEG-4 AVC
Качество: BDRip 720p
Параметры Видео: 1280x720, 25.000 fps; ~1 420-1 597 kbps avg
Параметры Звука: 48.0 KHz, AAC, ~128.00 kbps avg, 2ch
Формат: mp4
01. Душераздирающая повесть о тёмном лесе и маленьком жучке
02. Жутко-страшное предание о том, как один мальчик боялся умываться
03. Чудовищная быль о том, как некоторые боятся Чудовищ
04. Тревожный сказ о потерявшемся котёнке



General
Complete name : E:VideoRipMasha.i.Medved.Vse.serii.O.BDRip.720p_KinoGadgetMashkiny strashilki.O.BDRip.720p_KinoGadget�4. Тревожный сказ о потерявшемся котёнке..O.BDRip.720p_KinoGadget.and.KinoXa.mp4
Format : MPEG-4
Format profile : Base Media
Codec ID : isom
File size : 63.0 MiB
Duration : 5mn 38s
Overall bit rate mode : Variable
Overall bit rate : 1 562 Kbps
Movie name : Машкины страшилки
Performer : Олег Кузовков, Денис Червяцов, Ринат Газизов
Genre : Animation
ContentType : Short Film
Recorded date : 2014
Encoded date : UTC 2015-04-30 07:27:12
Tagged date : UTC 2015-04-30 10:35:17
Cover : Yes
LongDeion : Маша решила взяться за новый жанр — теперь она рассказывает страшилки! В своей неповторимой детской манере она раскрывает маленьким зрителям главный секрет: все страшилки живут лишь в нашем воображении. Играя и рассказывая пугающие истории, Маша учит малышей ничего не бояться. Она объясняет, откуда именно берутся самые распространённые детские страхи и как с ними бороться.
HDVideo : Yes
Video
ID : 1
Format : AVC
Format/Info : Advanced Video Codec
Format profile : High@L4.1
Format settings, CABAC : Yes
Format settings, ReFrames : 11 frames
Codec ID : avc1
Codec ID/Info : Advanced Video Coding
Duration : 5mn 38s
Bit rate : 1 420 Kbps
Maximum bit rate : 5 927 Kbps
Width : 1 280 pixels
Height : 720 pixels
Display aspect ratio : 16:9
Frame rate mode : Constant
Frame rate : 25.000 fps
Color space : YUV
Chroma subsampling : 4:2:0
Bit depth : 8 bits
Scan type : Progressive
Bits/(Pixel*Frame) : 0.062
Stream size : 57.3 MiB (91%)
Writing library : x264 core 130 r2273 b3065e6
Encoding settings : cabac=1 / ref=11 / deblock=1:-2:-1 / analyse=0x3:0x133 / me=umh / subme=9 / psy=1 / psy_rd=1.00:0.20 / mixed_ref=1 / me_range=32 / chroma_me=1 / trellis=2 / 8x8dct=1 / cqm=0 / deadzone=21,11 / fast_pskip=0 / chroma_qp_offset=-3 / threads=3 / lookahead_threads=1 / sliced_threads=0 / nr=0 / decimate=1 / interlaced=0 / bluray_compat=0 / constrained_intra=0 / bframes=16 / b_pyramid=2 / b_adapt=2 / b_bias=0 / direct=3 / weightb=1 / open_gop=0 / weightp=2 / keyint=250 / keyint_min=25 / scenecut=40 / intra_refresh=0 / rc_lookahead=60 / rc=crf / mbtree=1 / crf=21.0 / qcomp=0.60 / qpmin=0 / qpmax=69 / qpstep=4 / ip_ratio=1.40 / aq=1:0.10
Encoded date : UTC 2015-04-30 07:27:12
Tagged date : UTC 2015-04-30 07:27:14
Audio
ID : 2
Format : AAC
Format/Info : Advanced Audio Codec
Format profile : LC
Codec ID : 40
Duration : 5mn 38s
Bit rate mode : Variable
Bit rate : 128 Kbps
Maximum bit rate : 150 Kbps
Channel count : 2 channels
Channel positions : Front: L R
Sampling rate : 48.0 KHz
Compression mode : Lossy
Delay relative to video : 80ms
Stream size : 5.16 MiB (8%)
Encoded date : UTC 2015-04-30 07:27:13
Tagged date : UTC 2015-04-30 07:27:14







   Похожие торренты   Торрент   Размер 
В этой теме нет новых непрочитанных сообщений. Маша и Медведь [01-52] + Машины Сказки [01-26] + Машкины страшилки [01-06] (2009-2015) BDRip

1214 | 270

7.28 ГБ

В этой теме нет новых непрочитанных сообщений. Маша и Медведь [01-52] + Машины сказки [01-26] + Машкины страшилки [01-06] (2009-2015) BDRip-HEVC

550 | 146

3.97 ГБ

В этой теме нет новых непрочитанных сообщений. Маша и Медведь [01-51] + Машины Сказки [01-26] + Машкины страшилки [01-06] (2009-2015) Blu-ray Remux 1080p

37 | 278

115.45 ГБ

В этой теме нет новых непрочитанных сообщений. Маша и Медведь [01-55] + Машины сказки [01-26] + Машкины страшилки [01-11] (2009-2016) BDRip-HEVC

302 | 318

4.34 ГБ

В этой теме нет новых непрочитанных сообщений. Маша и Медведь [01-49] + Машины Сказки [01-26] + Машкины страшилки [01-05] + Клип (2009-2015) HDRip, WEB-DLRip от GeneralFilm

118 | 17

6.38 ГБ

В этой теме нет новых непрочитанных сообщений. Маша и Медведь [01-50] + Машины Сказки [01-26] + Машкины страшилки [01-06] + Клип (2009-2015) HDRip, WEB-DLRip от GeneralFilm

252 | 191

6.53 ГБ

В этой теме нет новых непрочитанных сообщений. Маша и Медведь [01-52] + Машины Сказки [01-26] + Машкины страшилки [01-06] + Клип (2009-2015) HDRip, WEB-DLRip от GeneralFilm

1831 | 400

6.7 ГБ




Вы не можете начинать темы
Вы не можете отвечать на сообщения
Вы не можете редактировать свои сообщения
Вы не можете удалять свои сообщения
Вы не можете добавлять вложения

Перейти:  
Для Мосгорсуда, Роскомнадзора и рекламодателей: mosgorsud-torrent[собачка]yandex.ru
 Вход
ppkBB3cker v.2 © 2008-2014 @ PPK
[ Time : 7.773s | 14 Queries | GZIP : Off ]
CGP output time : 0.020s | 5 Queries | GZIP : Off

Торрент трекер RUTOR.IN, Не можете зайти на rutor.org? Какой новый адрес рутор? Какое зеркало рутор? Не работает rutor.org и зеркала? Тогда наш торрент специально для вас. Rutor.in неофициальное зеркало rutor. В случае если у Вас заблокирован rutor или вдруг Вы не можете на него зайти, то Вы без труда сможете скачать бесплатно и без рекламы последние новинки кино, игр, сериалов и прочего у нас, на Rutor.in. Не нужно использовать прокси, чтобы зайти на рутор, достаточно воспользоваться нашим ресурсом. Все новые фильмы, игры, сериалы, книги и музыка за 2013 и 2014 годы через торрент бесплатно. Скачивайте фильмы в хорошем качестве, игры для пк, xbox, playstation без регистрации. У нас вы найдете новые Зарубежные сериалы и Русские сериалы 2013, 2014, 2015 годов. Оставайтесь с нами, качайте любимые фильмы, игры, сериалы, книги и музыку.