img image001 image001 image001 image001 image001 image001 image001 image001 image001 image001 image001 image001 image001 image001 image001

Planets Sun Sun Sun
Статистика раздачи
Автор: Nickolas3434 | Размер: 129.64 МБ | Добавлен: 03 май 2015
Раздают: 117    Качают: 4
Скачать торрент
Скачать торрент
Описание торрента

СообщениеДобавлено: 03 май 2015 


Информация о фильме
Название: Меню
Оригинальное название: Feast
Год выхода: 2014
Жанр: короткометражка, драма, мелодрама, комедия, семейный
Режиссер: Патрик Осборн
В ролях: Томми Снайдер, Бен Бледсо, Кэти Лоус, Брэндон Скотт, Адам Шапиро, Марк Аллан Стюарт
О фильме: История любви из жизни одного человека глазами его лучшего друга, собаки по имени Винстон, показанная через еду, которую они делят.
Продолжительность: 00:06:13
Перевод: Профессиональный (полное дублирование)
Субтитры: русские, английские (*srt, внешние)
Файл
Формат: AVI
Качество: BDRip [by rs.bandito]
Видео: 720 x 304 (2.37:1), 23.976 fps, XviD build 73 ~1999 kbps avg, 0.381 bit/pixel
Аудио #1: русский: 48 kHz, AC3 Dolby Digital, 3/2 (L,C,R,l,r) + LFE ch, ~448 kbps | Дубляж |
Аудио #2: английский: 48 kHz, AC3 Dolby Digital, 3/2 (L,C,R,l,r) + LFE ch, ~448 kbps | Оригинал |
Исходник: BDRemux 1080p | Исходник предоставлен -Azureus- | Автор рипа: Miheleniya
* Данную короткометражку демонстрировали в кинотеатрах перед показом мультфильма «Город героев» (2014).
Общее
Полное имя : Feast.2014.BDRip / Feast.2014.BDRip.avi
Формат : AVI
Формат/Информация : Audio Video Interleave
Размер файла : 130 Мбайт
Продолжительность : 6 м. 13 с.
Общий поток : 2909 Кбит/сек
Программа кодирования : VirtualDubMod 1.5.10.2 (build 2540/release)
Библиотека кодирования : VirtualDubMod build 2540/release
Видео
Идентификатор : 0
Формат : MPEG-4 Visual
Профиль формата : Advanced Simple@L5
Параметр BVOP формата : 1
Параметр QPel формата : Нет
Параметр GMC формата : Без точки перехода
Параметр матрицы формата : Выборочная
Идентификатор кодека : XVID
Идентификатор кодека/Подсказка : XviD
Продолжительность : 6 м. 13 с.
Битрейт : 1999 Кбит/сек
Ширина : 720 пикс.
Высота : 304 пикс.
Соотношение сторон : 2,35:1
Частота кадров : 23,976 кадр/сек
Цветовое пространство : YUV
Подвыборка цветности : 4:2:0
Битовая глубина : 8 бит
Тип развёртки : Прогрессивная
Метод сжатия : С потерями
Бит/(Пиксели*Кадры) : 0.381
Размер потока : 89,1 Мбайт (69%)
Библиотека кодирования : XviD 73
Аудио #1
Идентификатор : 1
Формат : AC-3
Формат/Информация : Audio Coding 3
Расширение режима : CM (complete main)
Идентификатор кодека : 2000
Продолжительность : 6 м. 13 с.
Вид битрейта : Постоянный
Битрейт : 448 Кбит/сек
Канал(ы) : 6 канала(ов)
Расположение каналов : Front: L C R, Side: L R, LFE
Частота : 48,0 КГц
Битовая глубина : 16 бит
Метод сжатия : С потерями
Размер потока : 20,0 Мбайт (15%)
Выравнивание : Разделение по промежуткам
Продолжительность промежутка : 42 мс. (1,00 видеокадр)
Время предзагрузки промежутка : 500 ms
Заголовок : Rus
Аудио #2
Идентификатор : 2
Формат : AC-3
Формат/Информация : Audio Coding 3
Расширение режима : CM (complete main)
Идентификатор кодека : 2000
Продолжительность : 6 м. 13 с.
Вид битрейта : Постоянный
Битрейт : 448 Кбит/сек
Канал(ы) : 6 канала(ов)
Расположение каналов : Front: L C R, Side: L R, LFE
Частота : 48,0 КГц
Битовая глубина : 16 бит
Метод сжатия : С потерями
Размер потока : 20,0 Мбайт (15%)
Выравнивание : Разделение по промежуткам
Продолжительность промежутка : 42 мс. (1,00 видеокадр)
Время предзагрузки промежутка : 500 ms
Заголовок : Eng




   Похожие торренты   Торрент   Размер 
В этой теме нет новых непрочитанных сообщений. Меню / Feast (2014) BDRip 720

265 | 7

242.82 МБ

В этой теме нет новых непрочитанных сообщений. Меню / Feast (2014) BDRip 1080p от kamikkadze | 60 FPS | Лицензия

98 | 4

836.66 МБ

В этой теме нет новых непрочитанных сообщений. Меню / Feast (2014) BDRip 1080p от Ash61 | 3D-Video | halfOU | Лицензия

101 | 10

548.14 МБ

В этой теме нет новых непрочитанных сообщений. Воспоминания о Марни / Omoide no Marnie (2014) BDRip от rs.bandito | L2, L1

273 | 28

2.44 ГБ

В этой теме нет новых непрочитанных сообщений. Наруто: Последний фильм / The Last: Naruto the Movie (2014) BDRip от rs.bandito | D | Лицензия

6 | 0

3.03 ГБ

В этой теме нет новых непрочитанных сообщений. Место на метле / Room on the Broom (2012) BDRip от rs.bandito | L2

90 | 2

559.64 МБ

В этой теме нет новых непрочитанных сообщений. Паника в деревне / Panique au village (2009) BDRip от rs.bandito | A

25 | 10

744.67 МБ




Вы не можете начинать темы
Вы не можете отвечать на сообщения
Вы не можете редактировать свои сообщения
Вы не можете удалять свои сообщения
Вы не можете добавлять вложения

Перейти:  
Для Мосгорсуда, Роскомнадзора и рекламодателей: mosgorsud-torrent[собачка]yandex.ru
 Вход
ppkBB3cker v.2 © 2008-2014 @ PPK
[ Time : 0.112s | 14 Queries | GZIP : Off ]

Торрент трекер RUTOR.IN, Не можете зайти на rutor.org? Какой новый адрес рутор? Какое зеркало рутор? Не работает rutor.org и зеркала? Тогда наш торрент специально для вас. Rutor.in неофициальное зеркало rutor. В случае если у Вас заблокирован rutor или вдруг Вы не можете на него зайти, то Вы без труда сможете скачать бесплатно и без рекламы последние новинки кино, игр, сериалов и прочего у нас, на Rutor.in. Не нужно использовать прокси, чтобы зайти на рутор, достаточно воспользоваться нашим ресурсом. Все новые фильмы, игры, сериалы, книги и музыка за 2013 и 2014 годы через торрент бесплатно. Скачивайте фильмы в хорошем качестве, игры для пк, xbox, playstation без регистрации. У нас вы найдете новые Зарубежные сериалы и Русские сериалы 2013, 2014, 2015 годов. Оставайтесь с нами, качайте любимые фильмы, игры, сериалы, книги и музыку.