img image001 image001 image001 image001 image001 image001 image001 image001 image001 image001 image001 image001 image001 image001 image001

Planets Sun Sun Sun
Статистика раздачи
Автор: Nickolas3434 | Размер: 3.45 ГБ | Добавлен: 06 май 2015
Раздают: 541    Качают: 24
Скачать торрент
Скачать торрент
Описание торрента

СообщениеДобавлено: 06 май 2015 


Информация о фильме
Название : Гнездо Дракона
Оригинальное название : Dragon Nest: Warriors' Dawn
Год выхода : 2014
Жанр : мультфильм, фэнтези, приключения, семейный
Режиссер : Юуефенг Сонг / Yuefeng Song

Описание : Эта анимационная картина является первой частью трилогии, в основу которой ляжет популярная многопользовательская ролевая веб-игра «Dragon Nest», разработанная кампанией EYEDENTITY Games.
События разворачиваются в вымышленном мире Альтеи, который некогда был цветущим краем безмятежности и надежд. Но для Альтеи настали страшные времена, ее поглотила боязнь Тьмы. И теперь эта бездна распространяется по всему краю, уничтожая на своем пути все, что так раньше было дорого ее жителям. Но у людей есть отважный и храбрый герой, которому под силу сразиться с силами Тьмы. Война ради мести будет жестокой и изнуряющей.
Страна : США, Китай, Франция
Производство : Mili Pictures
Продолжительность : 01:30:01
Перевод : Профессиональный (полное дублирование) [iTunes]
Файл
Формат видео : MKV
Качество : WEB-DL 1080p
Видео : AVC, 1920x1036 (1.85:1), 24.000 fps, ~4992 kbps avg
Аудио : Русский, AC3, 48.0 kHz, 6 ch, 384 kbps
Субтитры : Нет


General
Unique ID : 198908716739009452651255131501863982572 (0x95A46CE57D468229A08E9226EA6955EC)
Complete name : E:/Torrent_2/gHe3d0.dPaK0Ha.2014.D.WEB-DL.1080p.mkv
Format : Matroska
Format version : Version 4 / Version 2
File size : 3.45 GiB
Duration : 1h 30mn
Overall bit rate : 5 486 Kbps
Encoded date : UTC 2015-04-27 16:26:47
Writing application : mkvmerge v6.9.1 ('Blue Panther') 64bit built on Apr 18 2014 18:23:38
Writing library : libebml v1.3.0 + libmatroska v1.4.1
Video #1
ID : 1
Format : AVC
Format/Info : Advanced Video Codec
Format profile : High@L4.0
Format settings, CABAC : Yes
Format settings, ReFrames : 4 frames
Codec ID : V_MPEG4/ISO/AVC
Duration : 1h 30mn
Bit rate : 4 992 Kbps
Width : 1 920 pixels
Height : 1 036 pixels
Display aspect ratio : 1.85:1
Frame rate mode : Constant
Frame rate : 24.000 fps
Color space : YUV
Chroma subsampling : 4:2:0
Bit depth : 8 bits
Scan type : Progressive
Bits/(Pixel*Frame) : 0.105
Stream size : 3.14 GiB (91%)
Language : English
Default : Yes
Forced : No
Color primaries : BT.709
Transfer characteristics : BT.709
Matrix coefficients : BT.709
Audio #2
ID : 2
Format : AC-3
Format/Info : Audio Coding 3
Mode extension : CM (complete main)
Format settings, Endianness : Big
Codec ID : A_AC3
Duration : 1h 30mn
Bit rate mode : Constant
Bit rate : 384 Kbps
Channel(s) : 6 channels
Channel positions : Front: L C R, Side: L R, LFE
Sampling rate : 48.0 KHz
Bit depth : 16 bits
Compression mode : Lossy
Stream size : 247 MiB (7%)
Language : Russian
Default : Yes
Forced : No





   Похожие торренты   Торрент   Размер 
В этой теме нет новых непрочитанных сообщений. Гнездо дракона / Dragon Nest: Warriors' Dawn (2014) WEB-DL 720p | iTunes

730 | 20

2.8 ГБ

В этой теме нет новых непрочитанных сообщений. Гнездо дракона / Dragon Nest: Warriors' Dawn (2014) WEB-DLRip | iTunes

364 | 9

1.37 ГБ

В этой теме нет новых непрочитанных сообщений. Гнездо дракона / Dragon Nest: Warriors' Dawn (2014) WEB-DLRip-AVC от ExKinoRay | iTunes

59 | 13

1.73 ГБ

В этой теме нет новых непрочитанных сообщений. Гнездо дракона / Dragon Nest: Warriors' Dawn (2014) BDRip 1080p от NNNB

405 | 88

5.76 ГБ

В этой теме нет новых непрочитанных сообщений. Гнездо дракона / Dragon Nest: Warriors' Dawn (2014) BDRip 1080p | Лицензия

545 | 55

7.01 ГБ

В этой теме нет новых непрочитанных сообщений. Гнездо дракона / Dragon Nest: Warriors' Dawn (2014) BDRip 1080p от Ash61 | 3D-Video | halfOU

471 | 83

7.56 ГБ

В этой теме нет новых непрочитанных сообщений. Гнездо дракона / Dragon Nest: Warriors' Dawn (2014) WEBRip | L2

1105 | 51

1.37 ГБ




Вы не можете начинать темы
Вы не можете отвечать на сообщения
Вы не можете редактировать свои сообщения
Вы не можете удалять свои сообщения
Вы не можете добавлять вложения

Перейти:  
Для Мосгорсуда, Роскомнадзора и рекламодателей: mosgorsud-torrent[собачка]yandex.ru
 Вход
ppkBB3cker v.2 © 2008-2014 @ PPK
[ Time : 0.029s | 14 Queries | GZIP : Off ]

Торрент трекер RUTOR.IN, Не можете зайти на rutor.org? Какой новый адрес рутор? Какое зеркало рутор? Не работает rutor.org и зеркала? Тогда наш торрент специально для вас. Rutor.in неофициальное зеркало rutor. В случае если у Вас заблокирован rutor или вдруг Вы не можете на него зайти, то Вы без труда сможете скачать бесплатно и без рекламы последние новинки кино, игр, сериалов и прочего у нас, на Rutor.in. Не нужно использовать прокси, чтобы зайти на рутор, достаточно воспользоваться нашим ресурсом. Все новые фильмы, игры, сериалы, книги и музыка за 2013 и 2014 годы через торрент бесплатно. Скачивайте фильмы в хорошем качестве, игры для пк, xbox, playstation без регистрации. У нас вы найдете новые Зарубежные сериалы и Русские сериалы 2013, 2014, 2015 годов. Оставайтесь с нами, качайте любимые фильмы, игры, сериалы, книги и музыку.