img image001 image001 image001 image001 image001 image001 image001 image001 image001 image001 image001 image001 image001 image001 image001

Planets Sun Sun Sun
Статистика раздачи
Автор: Nickolas3434 | Размер: 3.21 ГБ | Добавлен: 07 май 2015
Раздают: 980    Качают: 51
Скачать торрент
Скачать торрент
Описание торрента

СообщениеДобавлено: 07 май 2015 


Информация о фильме
Название: Барашек Шон
Оригинальное название: Shaun the Sheep Movie
Год выхода: 2015
Жанр: комедия, приключения, семейный
Режиссер: Марк Бертон
В ролях: Джастин Флетчер, Джон Шпаркс, Омид Джалили, Ричард Веббер, Кейт Харбор, Тим Хэндс, Энди Найман, Саймон Гринхолл, Эмма Тейт, Джек Полсон
О фильме:
Мирная жизнь маленькой овцефермы оказывается под угрозой, когда в результате очередной проказы неутомимого Барашка Шона хозяин фермы попадает в большой город.
Вдоволь навеселившись полной свободой и безнаказанностью, Шон и остальное стадо барашков начинают волноваться за Фермера и решают отправиться на его спасение.
Замаскировавшись под людей, они едут в большой город, где их ждет самое весёлое и эпическое приключение всей жизни.

Страна: Великобритания, Франция
Студия: Aardman Animations, Anton Capital Entertainment (ACE), StudioCanal
Продолжительность: 01:21:33
Перевод: Не требуется [русский видеоряд]
Файл
Кодек: H.264
Качество: WEB-DL 1080p
Видео: AVC, 1918x1036 (1.85:1), 25 fps ~ 5130 Kbps
Звук: AC3, 48 KHz 6 ch ~ 384 Kb/s
Субтитры: отсутствуют
Общее
Уникальный идентификатор : 246144751527816950433983409299511136173 (0xB92DC13817146B71AAFEDBB6FC114FAD)
Полное имя : Q:TorFShaun.the.Sheep.The.Movie.2015.WEB-DL.1080p.mkv
Формат : Matroska
Версия формата : Version 2
Размер файла : 3,21 Гбайт
Продолжительность : 1 ч. 21 м.
Общий поток : 5627 Кбит/сек
Название фильма : Shaun.the.Sheep.The.Movie.2015
Дата кодирования : UTC 2015-05-05 17:44:24
Программа кодирования : mkvmerge v5.4.0 ('Piper') built on Mar 10 2012 13:34:39
Библиотека кодирования : libebml v1.2.3 + libmatroska v1.3.0
DURATION : 01:21:33.024000000
NUMBER_OF_FRAMES : 152907
NUMBER_OF_BYTES : 234865152
_STATISTICS_WRITING_APP : mkvmerge v7.2.0 ('On Every Street') 32bit built on Sep 13 2014 15:42:11
_STATISTICS_WRITING_DATE_UTC : 2015-04-30 20:14:44
_STATISTICS_TAGS : BPS DURATION NUMBER_OF_FRAMES NUMBER_OF_BYTES
Видео
Идентификатор : 1
Формат : AVC
Формат/Информация : Advanced Video Codec
Профиль формата : High@L4.0
Параметр CABAC формата : Да
Параметр ReFrames формата : 4 кадра
Режим смешивания : Header stripping
Идентификатор кодека : V_MPEG4/ISO/AVC
Продолжительность : 1 ч. 21 м.
Битрейт : 5131 Кбит/сек
Ширина : 1918 пикселей
Высота : 1036 пикселей
Соотношение сторон : 1,851
Частота кадров : 25,000 кадров/сек
Цветовое пространство : YUV
Субдискретизация насыщенности : 4:2:0
Битовая глубина : 8 бит
Тип развёртки : Прогрессивная
Бит/(Пиксели*Кадры) : 0.103
Размер потока : 2,92 Гбайт (91%)
Заголовок : Shaun.the.Sheep.The.Movie.2015.WEB-DL.1080p
Язык : English
Default : Да
Forced : Нет
Основные цвета : BT.709-5, BT.1361, IEC 61966-2-4, SMPTE RP177
Характеристики трансфера : BT.709-5, BT.1361
Коэффициенты матрицы : BT.709-5, BT.1361, IEC 61966-2-4 709, SMPTE RP177
Аудио
Идентификатор : 2
Формат : AC-3
Формат/Информация : Audio Coding 3
Расширение режима : CM (complete main)
Режим смешивания : Header stripping
Идентификатор кодека : A_AC3
Продолжительность : 1 ч. 21 м.
Вид битрейта : Постоянный
Битрейт : 384 Кбит/сек
Каналы : 6 каналов
Расположение каналов : Front: L C R, Side: L R, LFE
Частота : 48,0 КГц
Битовая глубина : 16 бит
Метод сжатия : С потерями
Размер потока : 224 Мбайт (7%)
Заголовок : Shaun.the.Sheep.The.Movie.2015
Язык : Russian
Default : Да
Forced : Нет
Меню
00:00:00.000 : en:1
00:02:08.000 : en:2
00:05:36.000 : en:3
00:09:06.000 : en:4
00:13:18.000 : en:5
00:16:53.000 : en:6
00:20:10.000 : en:7
00:24:53.000 : en:8
00:27:29.000 : en:9
00:30:50.000 : en:10
00:35:38.000 : en:11
00:38:29.000 : en:12
00:42:46.000 : en:13
00:47:39.000 : en:14
00:52:27.000 : en:15
00:56:54.000 : en:16
01:00:54.000 : en:17
01:05:25.000 : en:18
01:08:47.000 : en:19
01:12:37.000 : en:20

Семпл



   Похожие торренты   Торрент   Размер 
В этой теме нет новых непрочитанных сообщений. Барашек Шон / Shaun the Sheep Movie (2015) BDRip 1080p | Лицензия

838 | 118

5.43 ГБ

В этой теме нет новых непрочитанных сообщений. Барашек Шон / Shaun the Sheep Movie (2015) WEB-DL 720p

2293 | 46

2.54 ГБ

В этой теме нет новых непрочитанных сообщений. Барашек Шон / Shaun the Sheep Movie (2015) WEB-DLRip

9336 | 269

1.37 ГБ

В этой теме нет новых непрочитанных сообщений. Барашек Шон / Shaun the Sheep Movie (2015) BDRip-AVC

265 | 8

563.24 МБ

В этой теме нет новых непрочитанных сообщений. Барашек Шон / Shaun the Sheep Movie (2015) WEB-DLRip

442 | 9

699.95 МБ

В этой теме нет новых непрочитанных сообщений. Барашек Шон / Shaun the Sheep Movie (2015) WEBRip | КПК

218 | 8

331.57 МБ

В этой теме нет новых непрочитанных сообщений. Барашек Шон / Shaun the Sheep Movie (2015) BDRip от Twi7ter

943 | 105

1.46 ГБ




Вы не можете начинать темы
Вы не можете отвечать на сообщения
Вы не можете редактировать свои сообщения
Вы не можете удалять свои сообщения
Вы не можете добавлять вложения

Перейти:  
Для Мосгорсуда, Роскомнадзора и рекламодателей: mosgorsud-torrent[собачка]yandex.ru
 Вход
ppkBB3cker v.2 © 2008-2014 @ PPK
[ Time : 0.060s | 14 Queries | GZIP : Off ]

Торрент трекер RUTOR.IN, Не можете зайти на rutor.org? Какой новый адрес рутор? Какое зеркало рутор? Не работает rutor.org и зеркала? Тогда наш торрент специально для вас. Rutor.in неофициальное зеркало rutor. В случае если у Вас заблокирован rutor или вдруг Вы не можете на него зайти, то Вы без труда сможете скачать бесплатно и без рекламы последние новинки кино, игр, сериалов и прочего у нас, на Rutor.in. Не нужно использовать прокси, чтобы зайти на рутор, достаточно воспользоваться нашим ресурсом. Все новые фильмы, игры, сериалы, книги и музыка за 2013 и 2014 годы через торрент бесплатно. Скачивайте фильмы в хорошем качестве, игры для пк, xbox, playstation без регистрации. У нас вы найдете новые Зарубежные сериалы и Русские сериалы 2013, 2014, 2015 годов. Оставайтесь с нами, качайте любимые фильмы, игры, сериалы, книги и музыку.