img image001 image001 image001 image001 image001 image001 image001 image001 image001 image001 image001 image001 image001 image001 image001

Planets Sun Sun Sun
Статистика раздачи
Автор: Nickolas3434 | Размер: 113.48 МБ | Добавлен: 08 май 2015
Раздают: 680    Качают: 18
Скачать торрент
Скачать торрент
Описание торрента

СообщениеДобавлено: 08 май 2015 


Информация о фильме
Оригинальное название: Маша и медведь. Праздник урожая
Год выхода: 2015
Жанр: Мультсериал, компьютерная анимация, сказка, детский, семейный
Режиссер: Олег Кузовков, Владислав Байрамгулов, Наталья Мальгина
О фильме: Что затеяла бы Маша, стань она феей с волшебной палочкой? Уж точно что-нибудь ФЕЯричное! Особенно, когда Медведь придумал порадовать Медведицу и организовать бал-маскарад! В общем, стараниями новоявленной феи праздник получится ярким, запоминающимся и о-о-очень урожайным!
Страна: Россия
Продолжительность: 00:07:13
Перевод: Не требуется
Дата релиза: 07.05.15
Файл
Кодек: H264
Качество: WEB-DLRip (AVC)
Видео: MPEG-4 AVC, 2000 Кбит/с, 1024x576
Звук: AC3, 2 ch, 192 Кбит/с
Общее
Уникальный идентификатор : 240857557566818859341965917523137568028 (0xB5337A6E4383599999D3F53B3E049D1C)
Полное имя : D:ВидеоМаша и Медведь - Праздник Урожая (50 серия) WEB-DLRip (AVC).mkv
Формат : Matroska
Версия формата : Version 2
Размер файла : 113 Мбайт
Продолжительность : 7 м. 13 с.
Общий поток : 2194 Кбит/сек
Дата кодирования : UTC 2015-05-07 14:22:55
Программа кодирования : mkvmerge v6.1.0 ('Old Devil') built on Mar 4 2013 09:10:42
Библиотека кодирования : libebml v1.3.0 + libmatroska v1.4.0
Видео
Идентификатор : 1
Формат : AVC
Формат/Информация : Advanced Video Codec
Профиль формата : High@L4.1
Параметр CABAC формата : Да
Параметр ReFrames формата : 6 кадров
Идентификатор кодека : V_MPEG4/ISO/AVC
Продолжительность : 7 м. 13 с.
Битрейт : 2000 Кбит/сек
Ширина : 1024 пикселя
Высота : 576 пикселей
Соотношение сторон : 16:9
Режим частоты кадров : Постоянный
Частота кадров : 25,000 кадров/сек
Цветовое пространство : YUV
Субдискретизация насыщенности : 4:2:0
Битовая глубина : 8 бит
Тип развёртки : Прогрессивная
Бит/(Пиксели*Кадры) : 0.136
Размер потока : 101 Мбайт (89%)
Библиотека кодирования : x264 core 130 r2273 b3065e6
Настройки программы : cabac=1 / ref=6 / deblock=1:-2:-2 / analyse=0x3:0x113 / me=umh / subme=9 / psy=1 / psy_rd=1.00:0.15 / mixed_ref=1 / me_range=32 / chroma_me=1 / trellis=2 / 8x8dct=1 / cqm=0 / deadzone=21,11 / fast_pskip=1 / chroma_qp_offset=-3 / threads=6 / lookahead_threads=1 / sliced_threads=0 / nr=0 / decimate=0 / interlaced=0 / bluray_compat=0 / constrained_intra=0 / bframes=6 / b_pyramid=2 / b_adapt=2 / b_bias=0 / direct=3 / weightb=1 / open_gop=0 / weightp=2 / keyint=250 / keyint_min=25 / scenecut=40 / intra_refresh=0 / rc=2pass / mbtree=0 / bitrate=2000 / ratetol=1.0 / qcomp=0.60 / qpmin=0 / qpmax=69 / qpstep=4 / cplxblur=20.0 / qblur=0.5 / ip_ratio=1.40 / pb_ratio=1.30 / aq=1:1.00
Default : Да
Forced : Нет
Аудио
Идентификатор : 2
Формат : AC-3
Формат/Информация : Audio Coding 3
Расширение режима : CM (complete main)
Параметр Endianness формата : Big
Идентификатор кодека : A_AC3
Продолжительность : 7 м. 13 с.
Вид битрейта : Постоянный
Битрейт : 192 Кбит/сек
Каналы : 2 канала
Расположение каналов : Front: L R
Частота : 44,1 КГц
Битовая глубина : 16 бит
Метод сжатия : С потерями
Размер потока : 9,93 Мбайт (9%)
Default : Да
Forced : Нет



Релиз от:
Rip by: Vovan366



   Похожие торренты   Торрент   Размер 
В этой теме нет новых непрочитанных сообщений. Маша и медведь: Праздник урожая [50] (2015) WEB-DLRip от GeneralFilm

3809 | 69

113.9 МБ

В этой теме нет новых непрочитанных сообщений. Маша и медведь: Праздник урожая [50] (2015) WEB-DL (1080p) от GeneralFilm

1011 | 26

204.72 МБ

В этой теме нет новых непрочитанных сообщений. Маша и медведь: Праздник урожая [50] (2015) WEB-DL (720p) от GeneralFilm

454 | 21

111.76 МБ

В этой теме нет новых непрочитанных сообщений. Маша и Медведь: Раз в году [44] (2014) WEB-DLRip-AVC от ExKinoRay

323 | 8

146.53 МБ

В этой теме нет новых непрочитанных сообщений. Маша и Медведь: Крик победы [47] (2014) WEB-DLRip-AVC от ExKinoRay

529 | 9

140.31 МБ

В этой теме нет новых непрочитанных сообщений. Маша и Медведь - День кино [42] (2014) WEB-DLRip-AVC от ExKinoRay

385 | 8

134.28 МБ

В этой теме нет новых непрочитанных сообщений. Маша и Медведь: Героями не рождаются [43] (2014) WEB-DLRip-AVC от ExKinoRay

311 | 30

134.59 МБ




Вы не можете начинать темы
Вы не можете отвечать на сообщения
Вы не можете редактировать свои сообщения
Вы не можете удалять свои сообщения
Вы не можете добавлять вложения

Перейти:  
Для Мосгорсуда, Роскомнадзора и рекламодателей: mosgorsud-torrent[собачка]yandex.ru
 Вход
ppkBB3cker v.2 © 2008-2014 @ PPK
[ Time : 0.026s | 14 Queries | GZIP : Off ]

Торрент трекер RUTOR.IN, Не можете зайти на rutor.org? Какой новый адрес рутор? Какое зеркало рутор? Не работает rutor.org и зеркала? Тогда наш торрент специально для вас. Rutor.in неофициальное зеркало rutor. В случае если у Вас заблокирован rutor или вдруг Вы не можете на него зайти, то Вы без труда сможете скачать бесплатно и без рекламы последние новинки кино, игр, сериалов и прочего у нас, на Rutor.in. Не нужно использовать прокси, чтобы зайти на рутор, достаточно воспользоваться нашим ресурсом. Все новые фильмы, игры, сериалы, книги и музыка за 2013 и 2014 годы через торрент бесплатно. Скачивайте фильмы в хорошем качестве, игры для пк, xbox, playstation без регистрации. У нас вы найдете новые Зарубежные сериалы и Русские сериалы 2013, 2014, 2015 годов. Оставайтесь с нами, качайте любимые фильмы, игры, сериалы, книги и музыку.