img image001 image001 image001 image001 image001 image001 image001 image001 image001 image001 image001 image001 image001 image001 image001

Planets Sun Sun Sun
Статистика раздачи
Автор: Nickolas3434 | Размер: 2.75 ГБ | Добавлен: 14 май 2015
Раздают: 515    Качают: 15
Скачать торрент
Скачать торрент
Описание торрента

СообщениеДобавлено: 14 май 2015 


Название: Букашки. Приключение в Долине муравьев
Оригинальное название: Minuscule - La vallee des fourmis perdues
Год выхода: 2013
Жанр: Мультфильм, приключения, семейный
Режиссер: Хелен Жиро, Томас Забо
О фильме: Активные и любознательные черные муравьишки обнаруживают брошенную после пикника коробку с сахаром. Дружный отряд муравьишек вместе с Божьей коровкой решают переправить лакомство в муравейник. Но сладкая коробка уже успела нарушить спокойствие во всей долине, и свои планы на лакомство появились у других обитателей леса, в частности — у злобных красных муравьев-захватчиков. А, стало быть, на пути к заветной цели черным муравьишкам предстоит преодолеть массу опасностей и приключений.
Страна: Франция
Студия: Entre Chien et Loup, Futurikon, Futurikon Production II
Продолжительность: 01:28:27
Перевод: Не требуется
Кодек: MPEG-4 AVC
Качество: BDRip 720p
Видео: 1280x534, 2942 Кбит/с, 23.976 fps
Звук: DTS, 6 ch, 1509 Кбит/с
Семпл
http://screenshotcomparison.com/comparison/99568
В французском издании более полная картинка и при этом она не пересвечена.
frame I:828 Avg QP:12.46
frame P:27981 Avg QP:15.48
frame B:98439 Avg QP:19.38
General
Unique ID : 254838650082360767673695986553738042826 (0xBFB823830741DB388B1DC1458F451DCA)
Complete name : J:Minuscule.2013.x264.BDRip.(720p).mkv
Format : Matroska
Format version : Version 2
File size : 2.75 GiB
Duration : 1h 28mn
Overall bit rate : 4 448 Kbps
Movie name : Minuscule - La vallée des fourmis perdues / 2013 / Rip by PowerRock / ExKinoRay
Encoded date : UTC 2015-05-12 07:31:03
Writing application : mkvmerge v7.8.0 ('River Man') 32bit built on Apr 3 2015 12:11:22
Writing library : libebml v1.3.1 + libmatroska v1.4.2
Attachements : cover.jpg
Video
ID : 1
Format : AVC
Format/Info : Advanced Video Codec
Format profile : High@L4.1
Format settings, CABAC : Yes
Format settings, ReFrames : 9 frames
Codec ID : V_MPEG4/ISO/AVC
Duration : 1h 28mn
Bit rate : 2 942 Kbps
Width : 1 280 pixels
Height : 534 pixels
Display aspect ratio : 2.40:1
Original display aspect rat : 2.40:1
Frame rate mode : Constant
Frame rate : 23.976 fps
Color space : YUV
Chroma subsampling : 4:2:0
Bit depth : 8 bits
Scan type : Progressive
Bits/(Pixel*Frame) : 0.180
Stream size : 1.76 GiB (64%)
Title : Minuscule - La vallée des fourmis perdues / 2013
Writing library : x264 core 146 r2538 121396c
Encoding settings : cabac=1 / ref=9 / deblock=1:-1:-1 / analyse=0x3:0x113 / me=umh / subme=10 / psy=1 / psy_rd=1.00:0.10 / mixed_ref=1 / me_range=24 / chroma_me=1 / trellis=2 / 8x8dct=1 / cqm=0 / deadzone=21,11 / fast_pskip=0 / chroma_qp_offset=-3 / threads=6 / lookahead_threads=1 / sliced_threads=0 / nr=0 / decimate=1 / interlaced=0 / bluray_compat=0 / constrained_intra=0 / bframes=8 / b_pyramid=2 / b_adapt=2 / b_bias=0 / direct=3 / weightb=1 / open_gop=0 / weightp=2 / keyint=250 / keyint_min=23 / scenecut=40 / intra_refresh=0 / rc_lookahead=50 / rc=2pass / mbtree=1 / bitrate=2942 / ratetol=1.0 / qcomp=0.60 / qpmin=10 / qpmax=51 / qpstep=4 / cplxblur=20.0 / qblur=0.5 / vbv_maxrate=14000 / vbv_bufsize=14000 / nal_hrd=none / filler=0 / ip_ratio=1.40 / aq=1:1.00
Default : Yes
Forced : No
Audio
ID : 2
Format : DTS
Format/Info : Digital Theater Systems
Mode : 16
Format settings, Endianness : Big
Codec ID : A_DTS
Duration : 1h 28mn
Bit rate mode : Constant
Bit rate : 1 509 Kbps
Channel(s) : 6 channels
Channel positions : Front: L C R, Side: L R, LFE
Sampling rate : 48.0 KHz
Bit depth : 24 bits
Compression mode : Lossy
Stream size : 955 MiB (34%)
Language : French
Default : Yes
Forced : No
Menu
00:00:00.000 : :Chapter 01
00:02:44.080 : :Chapter 02
00:19:44.016 : :Chapter 03
00:34:45.041 : :Chapter 04
00:42:08.567 : :Chapter 05
00:58:45.230 : :Chapter 06
01:13:24.691 : :Chapter 07
01:19:13.498 : :Chapter 08
01:22:50.382 : :Chapter 09




Релиз от:



   Похожие торренты   Торрент   Размер 
В этой теме нет новых непрочитанных сообщений. Букашки. Приключение в Долине муравьев / Minuscule - La vallee des fourmis perdues (2013) BDRip 720p от ExKinoRay | FRE Transfer

156 | 24

4.14 ГБ

В этой теме нет новых непрочитанных сообщений. Букашки. Приключение в Долине муравьев / Minuscule - La vallée des fourmis perdues (2013) WEB-DLRip-AVC от EXKinoRay

79 | 17

1.01 ГБ

В этой теме нет новых непрочитанных сообщений. Букашки. Приключение в Долине муравьев / Minuscule - La vallée des fourmis perdues (2013) BDRip 720p от HELLYWOOD

747 | 56

2.91 ГБ

В этой теме нет новых непрочитанных сообщений. Букашки. Приключение в Долине муравьев / Minuscule - La vallée des fourmis perdues (2013) WEB-DL 720p

948 | 78

1.15 ГБ

В этой теме нет новых непрочитанных сообщений. Букашки. Приключение в Долине муравьев / Minuscule - La vallée des fourmis perdues (2013) BDRip-AVC

1231 | 107

1.46 ГБ

В этой теме нет новых непрочитанных сообщений. Букашки. Приключение в Долине муравьев / Minuscule - La vallée des fourmis perdues (2013) BDRip-AVC от HELLYWOOD

524 | 34

1.46 ГБ

В этой теме нет новых непрочитанных сообщений. Букашки. Приключение в Долине муравьев / Minuscule - Minuscule - La vallee des fourmis perdues BDRip 1080p от R.G. HD-Films | 3D | 120 fps

118 | 21

15.15 ГБ




Вы не можете начинать темы
Вы не можете отвечать на сообщения
Вы не можете редактировать свои сообщения
Вы не можете удалять свои сообщения
Вы не можете добавлять вложения

Перейти:  
Для Мосгорсуда, Роскомнадзора и рекламодателей: mosgorsud-torrent[собачка]yandex.ru
 Вход
ppkBB3cker v.2 © 2008-2014 @ PPK
[ Time : 0.950s | 14 Queries | GZIP : Off ]

Торрент трекер RUTOR.IN, Не можете зайти на rutor.org? Какой новый адрес рутор? Какое зеркало рутор? Не работает rutor.org и зеркала? Тогда наш торрент специально для вас. Rutor.in неофициальное зеркало rutor. В случае если у Вас заблокирован rutor или вдруг Вы не можете на него зайти, то Вы без труда сможете скачать бесплатно и без рекламы последние новинки кино, игр, сериалов и прочего у нас, на Rutor.in. Не нужно использовать прокси, чтобы зайти на рутор, достаточно воспользоваться нашим ресурсом. Все новые фильмы, игры, сериалы, книги и музыка за 2013 и 2014 годы через торрент бесплатно. Скачивайте фильмы в хорошем качестве, игры для пк, xbox, playstation без регистрации. У нас вы найдете новые Зарубежные сериалы и Русские сериалы 2013, 2014, 2015 годов. Оставайтесь с нами, качайте любимые фильмы, игры, сериалы, книги и музыку.