img image001 image001 image001 image001 image001 image001 image001 image001 image001 image001 image001 image001 image001 image001 image001

Planets Sun Sun Sun
Статистика раздачи
Автор: Nickolas3434 | Размер: 2.23 ГБ | Добавлен: 22 май 2015
Раздают: 1964    Качают: 53
Скачать торрент
Скачать торрент
Описание торрента

СообщениеДобавлено: 22 май 2015 

Информация о фильме
Название: Дом
Оригинальное название: Home
Год выхода: 2015
Жанр: мультфильм, фантастика, фэнтези, комедия, приключения, семейный
Режиссер: Тим Джонсон
В ролях: Джим Парсонс, Рианна, Стив Мартин, Дженнифер Лопез, Мэтт Джонс, Брайан Степанек, Эйприл Стрюбинг, Стивен Кеарин, Лиза Стюарт, Эйприл Уинчелл
О фильме: Захватив Землю, раса пришельцев Був тут же начинает заниматься её благоустройством и реорганизацией. «Не стоит благодарности!» — заявляют они землянам, собранным на время в отдельных резервациях. Находчивая и рисковая девочка по имени Дар, чудом сбежавшая от пришельцев, встречает на своем пути самого раздражающе-оптимистичного Бува по имени О, отвергнутого своими инопланетными собратьями. Этой, казалось бы, несовместимой парочке предстоит спасти нашу планету. Хорошо, что у них есть летающий автомобиль!

Выпущено: США
Продолжительность: 01:34:23
Озвучивание: Дублированное [iTunes]
Файл
Качество: WEB-DLRip (AVC)
Видео: MPEG-4 AVC, 2610 Кбит/с, 1024x550
Аудио: Русский (AC3, 6 ch, 384 Кбит/с), украинский, английский (AC3, 2 ch, 192 Кбит/с)
General
Unique ID : 245812653581432506742154842849912226853 (0xB8EDCB86B45688748234DA59151F0425)
Complete name : C:Dom.2015.D.WEB-DL.Rip.AVC.ExKinoRay.mkv
Format : Matroska
Format version : Version 4 / Version 2
File size : 2.23 GiB
Duration : 1h 34mn
Overall bit rate : 3 375 Kbps
Movie name : Dom 2015 from ExKinoRay
Encoded date : UTC 2015-05-21 17:09:03
Writing application : mkvmerge v6.6.0 ('The Edge Of The In Between') built on Dec 1 2013 17:55:00
Writing library : libebml v1.3.0 + libmatroska v1.4.1
Video
ID : 1
Format : AVC
Format/Info : Advanced Video Codec
Format profile : High@L4.1
Format settings, CABAC : Yes
Format settings, ReFrames : 10 frames
Codec ID : V_MPEG4/ISO/AVC
Duration : 1h 34mn
Bit rate : 2 610 Kbps
Width : 1 024 pixels
Height : 550 pixels
Display aspect ratio : 1.85:1
Frame rate mode : Constant
Frame rate : 23.976 fps
Color space : YUV
Chroma subsampling : 4:2:0
Bit depth : 8 bits
Scan type : Progressive
Bits/(Pixel*Frame) : 0.193
Stream size : 1.67 GiB (75%)
Title : Enigma
Writing library : x264 core 133 r2334 a3ac64b
Encoding settings : cabac=1 / ref=10 / deblock=1:-2:-2 / analyse=0x3:0x113 / me=umh / subme=10 / psy=1 / psy_rd=1.00:0.00 / mixed_ref=1 / me_range=32 / chroma_me=1 / trellis=2 / 8x8dct=1 / cqm=0 / deadzone=21,11 / fast_pskip=0 / chroma_qp_offset=-2 / threads=12 / lookahead_threads=2 / sliced_threads=0 / nr=0 / decimate=0 / interlaced=0 / bluray_compat=0 / constrained_intra=0 / bframes=9 / b_pyramid=2 / b_adapt=2 / b_bias=0 / direct=3 / weightb=1 / open_gop=0 / weightp=2 / keyint=240 / keyint_min=23 / scenecut=40 / intra_refresh=0 / rc=2pass / mbtree=0 / bitrate=2610 / ratetol=1.0 / qcomp=0.60 / qpmin=0 / qpmax=51 / qpstep=4 / cplxblur=20.0 / qblur=0.5 / ip_ratio=1.40 / pb_ratio=1.30 / aq=1:1.00
Language : English
Default : Yes
Forced : No
Color primaries : BT.709
Transfer characteristics : BT.709
Matrix coefficients : BT.709
Audio #1
ID : 2
Format : AC-3
Format/Info : Audio Coding 3
Mode extension : CM (complete main)
Format settings, Endianness : Big
Codec ID : A_AC3
Duration : 1h 34mn
Bit rate mode : Constant
Bit rate : 384 Kbps
Channel(s) : 6 channels
Channel positions : Front: L C R, Side: L R, LFE
Sampling rate : 48.0 KHz
Bit depth : 16 bits
Compression mode : Lossy
Stream size : 259 MiB (11%)
Title : iTunes
Language : Russian
Default : Yes
Forced : No
Audio #2
ID : 3
Format : AC-3
Format/Info : Audio Coding 3
Mode extension : CM (complete main)
Format settings, Endianness : Big
Codec ID : A_AC3
Duration : 1h 34mn
Bit rate mode : Constant
Bit rate : 192 Kbps
Channel(s) : 2 channels
Channel positions : Front: L R
Sampling rate : 48.0 KHz
Bit depth : 16 bits
Compression mode : Lossy
Stream size : 130 MiB (6%)
Language : Ukrainian
Default : No
Forced : No
Audio #3
ID : 4
Format : AC-3
Format/Info : Audio Coding 3
Mode extension : CM (complete main)
Format settings, Endianness : Big
Codec ID : A_AC3
Duration : 1h 34mn
Bit rate mode : Constant
Bit rate : 192 Kbps
Channel(s) : 2 channels
Channel positions : Front: L R
Sampling rate : 48.0 KHz
Bit depth : 16 bits
Compression mode : Lossy
Stream size : 130 MiB (6%)
Language : English
Default : No
Forced : No
Menu
00:00:00.000 : en:1
00:03:42.000 : en:2
00:07:26.000 : en:3
00:11:18.000 : en:4
00:14:25.000 : en:5
00:17:56.000 : en:6
00:21:04.000 : en:7
00:21:50.000 : en:8
00:25:16.000 : en:9
00:29:04.000 : en:10
00:33:11.000 : en:11
00:38:55.000 : en:12
00:41:27.000 : en:13
00:44:24.000 : en:14
00:46:47.000 : en:15
00:51:30.000 : en:16
00:56:21.000 : en:17
01:00:39.000 : en:18
01:03:50.000 : en:19
01:06:52.000 : en:20
01:09:39.000 : en:21
01:13:50.000 : en:22
01:18:06.000 : en:23
01:23:50.000 : en:24




Релиз от:
Автор релиза:



   Похожие торренты   Торрент   Размер 
В этой теме нет новых непрочитанных сообщений. Дом / Home (2015) WEB-DLRip-AVC от ExKinoRay | iTunes

636 | 17

744.32 МБ

В этой теме нет новых непрочитанных сообщений. Здравствуй, папа, Новый год / Daddy's Home (2015) BDRip-AVC от ExKinoRay | iTunes

520 | 38

2.53 ГБ

В этой теме нет новых непрочитанных сообщений. Дом / Home (2015) WEB-DLRip | iTunes

17286 | 354

1.37 ГБ

В этой теме нет новых непрочитанных сообщений. Дом / Home (2015) WEB-DLRip от -=HD-NET=- | КПК | iTunes

265 | 23

374.31 МБ

В этой теме нет новых непрочитанных сообщений. Дом / Home (2015) WEB-DLRip от Scarabey | iTunes

3557 | 123

1.45 ГБ

В этой теме нет новых непрочитанных сообщений. Дом / Home (2015) WEB-DLRip от Generalfilm | КПК | iTunes

1062 | 38

321.95 МБ

В этой теме нет новых непрочитанных сообщений. Дом / Home (2015) WEB-DLRip от Scarabey | iTunes

708 | 23

743.22 МБ




Вы не можете начинать темы
Вы не можете отвечать на сообщения
Вы не можете редактировать свои сообщения
Вы не можете удалять свои сообщения
Вы не можете добавлять вложения

Перейти:  
Для Мосгорсуда, Роскомнадзора и рекламодателей: mosgorsud-torrent[собачка]yandex.ru
 Вход
ppkBB3cker v.2 © 2008-2014 @ PPK
[ Time : 0.046s | 15 Queries | GZIP : Off ]

Торрент трекер RUTOR.IN, Не можете зайти на rutor.org? Какой новый адрес рутор? Какое зеркало рутор? Не работает rutor.org и зеркала? Тогда наш торрент специально для вас. Rutor.in неофициальное зеркало rutor. В случае если у Вас заблокирован rutor или вдруг Вы не можете на него зайти, то Вы без труда сможете скачать бесплатно и без рекламы последние новинки кино, игр, сериалов и прочего у нас, на Rutor.in. Не нужно использовать прокси, чтобы зайти на рутор, достаточно воспользоваться нашим ресурсом. Все новые фильмы, игры, сериалы, книги и музыка за 2013 и 2014 годы через торрент бесплатно. Скачивайте фильмы в хорошем качестве, игры для пк, xbox, playstation без регистрации. У нас вы найдете новые Зарубежные сериалы и Русские сериалы 2013, 2014, 2015 годов. Оставайтесь с нами, качайте любимые фильмы, игры, сериалы, книги и музыку.